<?xml version="1.0" standalone="no"?>
<!DOCTYPE svg PUBLIC "-//W3C//DTD SVG 1.1//EN" "http://www.w3.org/Graphics/SVG/1.1/DTD/svg11.dtd" >
<svg xmlns="http://www.w3.org/2000/svg" xmlns:xlink="http://www.w3.org/1999/xlink" version="1.1">
<metadata>
Created by FontForge 20170910 at Thu Feb 11 17:46:28 2016
 By Jimmy Wärting
Copyright (c) 2015 by www.fontiran.com (Moslem Ebrahimi). All rights reserved.
</metadata>
<defs>
<font id="IRANSansWeb" horiz-adv-x="0" >
  <font-face 
    font-family="IRANSansWeb"
    font-weight="400"
    font-stretch="normal"
    units-per-em="2300"
    panose-1="2 4 5 3 5 2 1 2 2 3"
    ascent="1840"
    descent="-460"
    x-height="1183"
    cap-height="1635"
    bbox="-1192 -1584 4798 2442.24"
    underline-thickness="100"
    underline-position="-700"
    unicode-range="U+0020-FEFC"
  />
<missing-glyph horiz-adv-x="1229" 
d="M102 -362v1806h1024v-1806h-1024zM217 -248h795v1577h-795v-1577z" />
    <glyph glyph-name="uniFEFB" unicode="&#xfedf;&#xfe8e;" horiz-adv-x="1264" arabic-form="isolated" 
d="M1178 591q4 -58 -6.5 -125t-33 -132t-56 -122.5t-76.5 -96.5q-66 -60 -155 -103t-195 -68q-91 -19 -184.5 -22.5t-185.5 11.5l34 195q63 -12 139 -9.5t153 19.5q-16 89 -47.5 183.5t-72 188.5t-86.5 184.5t-92 171.5t-88 150t-75 119t-53 79t-21 30l163 114
q1 -3 22.5 -34t56.5 -84.5t80 -127t94 -161.5q121 -214 197 -399.5t110 -343.5q41 26 76.5 69.5t60.5 94.5t37 104.5t7 100.5l-103 930l196 19q0 -1 6 -40t15 -106t20.5 -156.5t23 -193t21.5 -216t18 -223.5z" />
    <glyph glyph-name="uniFEFC" unicode="&#xfee0;&#xfe8e;" horiz-adv-x="1399" arabic-form="final" 
d="M1265 232q36 -20 66 -26.5t38 -8.5l30 -1h9q20 0 38 -7.5t31.5 -21t21.5 -31.5t8 -38q0 -42 -29 -70t-70 -28h-9h-40q-11 0 -44.5 3.5t-76.5 19.5t-89.5 49.5t-83.5 93.5q-75 -84 -172 -135t-224 -82q-91 -19 -184.5 -22.5t-185.5 11.5l34 195q63 -12 139 -9.5t153 19.5
q-16 89 -47.5 183.5t-72 188.5t-86.5 184.5t-91.5 171.5t-88 150t-75 119t-52 79t-20.5 30l161 114q1 -3 22.5 -34t56.5 -84.5t80 -127t94 -161.5q121 -214 197 -399.5t110 -343.5q39 22 71.5 52t55 66t33 77.5t5.5 86.5q-7 109 -16.5 226t-19 229.5t-19 213.5t-16.5 177.5
t-11.5 122t-4.5 46.5l196 21q0 -1 3.5 -32t8.5 -84t12 -125t14.5 -156t15.5 -176.5t15.5 -187t14 -187t11.5 -176.5q2 -30 6.5 -56t13.5 -48t24 -39.5t39 -31.5z" />
    <glyph glyph-name="uniFEF7" unicode="&#xfedf;&#xfe84;" horiz-adv-x="1269" arabic-form="isolated" 
d="M1178 591q4 -58 -6.5 -125t-33 -132t-56 -122.5t-76.5 -96.5q-66 -60 -155 -103t-195 -68q-91 -19 -184.5 -22.5t-185.5 11.5l34 195q63 -12 139 -9.5t153 19.5q-16 89 -47.5 183.5t-72 188.5t-86.5 184.5t-92 171.5t-88 150t-75 119t-53 79t-21 30l163 114
q1 -3 22.5 -34t56.5 -84.5t80 -127t94 -161.5q121 -214 197 -399.5t110 -343.5q41 26 76.5 69.5t60.5 94.5t37 104.5t7 100.5l-103 930l196 19q0 -1 6 -40t15 -106t20.5 -156.5t23 -193t21.5 -216t18 -223.5zM306 1867q-12 3 -27 6q-13 2 -29.5 4.5t-35.5 2.5
q-15 0 -30.5 -2.5t-31.5 -9.5v2q-32 -14 -51.5 -42.5t-19.5 -61.5q0 -17 8 -36l-1 1q14 -35 49.5 -58.5t78.5 -23.5q11 0 21 1t21 6q26 8 51 21t45 25q23 14 43 29l59 -78q-39 -29 -98 -62t-144 -80l-227 -126l-48 87l179 100q-41 17 -72.5 49t-48.5 71q-14 34 -14 74
q0 31 9.5 60.5t27 55t42 45.5t54.5 32q47 19 98 19q23 0 44 -3t38 -7q19 -4 38 -9z" />
    <glyph glyph-name="uniFEF8" unicode="&#xfee0;&#xfe84;" horiz-adv-x="1417" arabic-form="final" 
d="M1265 232q36 -20 66 -26.5t38 -8.5l30 -1h9q20 0 38 -7.5t31.5 -21t21.5 -31.5t8 -38q0 -42 -29 -70t-70 -28h-9h-40q-11 0 -44.5 3.5t-76.5 19.5t-89.5 49.5t-83.5 93.5q-75 -84 -172 -135t-224 -82q-91 -19 -184.5 -22.5t-185.5 11.5l34 195q63 -12 139 -9.5t153 19.5
q-16 89 -47.5 183.5t-72 188.5t-86.5 184.5t-91.5 171.5t-88 150t-75 119t-52 79t-20.5 30l161 114q1 -3 22.5 -34t56.5 -84.5t80 -127t94 -161.5q121 -214 197 -399.5t110 -343.5q39 22 71.5 52t55 66t33 77.5t5.5 86.5q-7 109 -16.5 226t-19 229.5t-19 213.5t-16.5 177.5
t-11.5 122t-4.5 46.5l196 21q0 -1 3.5 -32t8.5 -84t12 -125t14.5 -156t15.5 -176.5t15.5 -187t14 -187t11.5 -176.5q2 -30 6.5 -56t13.5 -48t24 -39.5t39 -31.5zM320 1842q-12 3 -27 6q-13 2 -29.5 4.5t-35.5 2.5q-15 0 -30.5 -2.5t-31.5 -9.5v2q-32 -14 -51.5 -42.5
t-19.5 -61.5q0 -17 8 -36l-1 1q14 -35 49.5 -58.5t78.5 -23.5q11 0 21 1t21 6q26 8 51 21t45 25q23 14 43 29l59 -78q-39 -29 -98 -62t-144 -80l-227 -126l-48 87l179 100q-41 17 -72.5 49t-48.5 71q-14 34 -14 74q0 31 9.5 60.5t27 55t42 45.5t54.5 32q47 19 98 19
q23 0 44 -3t38 -7q19 -4 38 -9z" />
    <glyph glyph-name="uniFEF9" unicode="&#xfedf;&#xfe88;" horiz-adv-x="1280" arabic-form="isolated" 
d="M1178 591q4 -58 -6.5 -125t-33 -132t-56 -122.5t-76.5 -96.5q-66 -60 -155 -103t-195 -68q-91 -19 -184.5 -22.5t-185.5 11.5l34 195q63 -12 139 -9.5t153 19.5q-16 89 -47.5 183.5t-72 188.5t-86.5 184.5t-92 171.5t-88 150t-75 119t-53 79t-21 30l163 114
q1 -3 22.5 -34t56.5 -84.5t80 -127t94 -161.5q121 -214 197 -399.5t110 -343.5q41 26 76.5 69.5t60.5 94.5t37 104.5t7 100.5l-103 930l196 19q0 -1 6 -40t15 -106t20.5 -156.5t23 -193t21.5 -216t18 -223.5zM494 -248q-12 3 -27 6q-13 2 -29.5 4.5t-35.5 2.5
q-15 0 -30.5 -2.5t-31.5 -9.5v2q-32 -14 -51.5 -42.5t-19.5 -61.5q0 -17 8 -36l-1 1q14 -35 49.5 -58.5t78.5 -23.5q11 0 21 1t21 6q26 8 51 21t45 25q23 14 43 29l59 -78q-39 -29 -98 -62t-144 -80l-227 -126l-48 87l179 100q-41 17 -72.5 49t-48.5 71q-14 34 -14 74
q0 31 9.5 60.5t27 55t42 45.5t54.5 32q47 19 98 19q23 0 44 -3t38 -7q19 -4 38 -9z" />
    <glyph glyph-name="uniFEFA" unicode="&#xfee0;&#xfe88;" horiz-adv-x="1417" arabic-form="final" 
d="M1265 232q36 -20 66 -26.5t38 -8.5l30 -1h9q20 0 38 -7.5t31.5 -21t21.5 -31.5t8 -38q0 -42 -29 -70t-70 -28h-9h-40q-11 0 -44.5 3.5t-76.5 19.5t-89.5 49.5t-83.5 93.5q-75 -84 -172 -135t-224 -82q-91 -19 -184.5 -22.5t-185.5 11.5l34 195q63 -12 139 -9.5t153 19.5
q-16 89 -47.5 183.5t-72 188.5t-86.5 184.5t-91.5 171.5t-88 150t-75 119t-52 79t-20.5 30l161 114q1 -3 22.5 -34t56.5 -84.5t80 -127t94 -161.5q121 -214 197 -399.5t110 -343.5q39 22 71.5 52t55 66t33 77.5t5.5 86.5q-7 109 -16.5 226t-19 229.5t-19 213.5t-16.5 177.5
t-11.5 122t-4.5 46.5l196 21q0 -1 3.5 -32t8.5 -84t12 -125t14.5 -156t15.5 -176.5t15.5 -187t14 -187t11.5 -176.5q2 -30 6.5 -56t13.5 -48t24 -39.5t39 -31.5zM478 -261q-12 3 -27 6q-13 2 -29.5 4.5t-35.5 2.5q-15 0 -30.5 -2.5t-31.5 -9.5v2q-32 -14 -51.5 -42.5
t-19.5 -61.5q0 -17 8 -36l-1 1q14 -35 49.5 -58.5t78.5 -23.5q11 0 21 1t21 6q26 8 51 21t45 25q23 14 43 29l59 -78q-39 -29 -98 -62t-144 -80l-227 -126l-48 87l179 100q-41 17 -72.5 49t-48.5 71q-14 34 -14 74q0 31 9.5 60.5t27 55t42 45.5t54.5 32q47 19 98 19
q23 0 44 -3t38 -7q19 -4 38 -9z" />
    <glyph glyph-name="uniFEF5" unicode="&#xfedf;&#xfe82;" horiz-adv-x="1373" arabic-form="isolated" 
d="M1280 591q4 -58 -6.5 -125t-33 -132t-56 -122.5t-76.5 -96.5q-66 -60 -155 -103t-195 -68q-91 -19 -184.5 -22.5t-185.5 11.5l34 195q63 -12 139 -9.5t153 19.5q-16 89 -47.5 183.5t-72 188.5t-86.5 184.5t-92 171.5t-88 150t-75 119t-53 79t-21 30l163 114
q1 -3 22.5 -34t56.5 -84.5t80 -127t94 -161.5q121 -214 197 -399.5t110 -343.5q41 26 76.5 69.5t60.5 94.5t37 104.5t7 100.5l-103 930l196 19q0 -1 6 -40t15 -106t20.5 -156.5t23 -193t21.5 -216t18 -223.5zM2 1414q1 2 5 13.5t10.5 27t14 33t15.5 31.5q32 51 74 81.5
t87 38.5q10 2 22 2.5t21 0.5q44 0 79.5 -11t66.5 -24q27 -11 53.5 -19t57.5 -9q24 -1 47 11t42 28t33 32t20 24l114 -74q-1 -2 -10 -15t-25.5 -31.5t-39.5 -39t-51.5 -37.5t-62.5 -28t-72 -10q-40 1 -75 11t-65 21l-16 6q-32 12 -59 20t-58 3q-18 -2 -34 -17.5t-28.5 -36
t-21 -41t-12.5 -32.5z" />
    <glyph glyph-name="uniFEF6" unicode="&#xfee0;&#xfe82;" horiz-adv-x="1470" arabic-form="final" 
d="M1318 232q36 -20 66 -26.5t38 -8.5l30 -1h9q20 0 38 -7.5t31.5 -21t21.5 -31.5t8 -38q0 -42 -29 -70t-70 -28h-9h-40q-11 0 -44.5 3.5t-76.5 19.5t-89.5 49.5t-83.5 93.5q-75 -84 -172 -135t-224 -82q-91 -19 -184.5 -22.5t-185.5 11.5l34 195q63 -12 139 -9.5t153 19.5
q-16 89 -47.5 183.5t-72 188.5t-86.5 184.5t-91.5 171.5t-88 150t-75 119t-52 79t-20.5 30l161 114q1 -3 22.5 -34t56.5 -84.5t80 -127t94 -161.5q121 -214 197 -399.5t110 -343.5q39 22 71.5 52t55 66t33 77.5t5.5 86.5q-7 109 -16.5 226t-19 229.5t-19 213.5t-16.5 177.5
t-11.5 122t-4.5 46.5l196 21q0 -1 3.5 -32t8.5 -84t12 -125t14.5 -156t15.5 -176.5t15.5 -187t14 -187t11.5 -176.5q2 -30 6.5 -56t13.5 -48t24 -39.5t39 -31.5zM-39 1418q1 2 5 13.5t10.5 27t14 33t15.5 31.5q32 51 74 81.5t87 38.5q10 2 22 2.5t21 0.5q44 0 79.5 -11
t66.5 -24q27 -11 53.5 -19t57.5 -9q24 -1 47 11t42 28t33 32t20 24l114 -74q-1 -2 -10 -15t-25.5 -31.5t-39.5 -39t-51.5 -37.5t-62.5 -28t-72 -10q-40 1 -75 11t-65 21l-16 6q-32 12 -59 20t-58 3q-18 -2 -34 -17.5t-28.5 -36t-21 -41t-12.5 -32.5z" />
    <glyph glyph-name="uni06440671.isol" unicode="&#xfedf;&#xfb51;" horiz-adv-x="1280" 
d="M1178 591q4 -58 -6.5 -125t-33 -132t-56 -122.5t-76.5 -96.5q-66 -60 -155 -103t-195 -68q-91 -19 -184.5 -22.5t-185.5 11.5l34 195q63 -12 139 -9.5t153 19.5q-16 89 -47.5 183.5t-72 188.5t-86.5 184.5t-92 171.5t-88 150t-75 119t-53 79t-21 30l163 114
q1 -3 22.5 -34t56.5 -84.5t80 -127t94 -161.5q121 -214 197 -399.5t110 -343.5q41 26 76.5 69.5t60.5 94.5t37 104.5t7 100.5l-103 930l196 19q0 -1 6 -40t15 -106t20.5 -156.5t23 -193t21.5 -216t18 -223.5zM646 1552q16 16 20 36q4 22 -10 41q-19 24 -56 24q-17 0 -36 -5
q-50 -15 -92 -60q-31 -33 -55 -79q35 -3 65 -3q107 0 158 41q2 2 6 5zM748 1641q16 -44 -3 -93q-17 -44 -55 -72q-39 -29 -99 -43q-41 -9 -97 -12l-22 -1h-25q-40 0 -69 5q-43 8 -72 27q-6 5 -13 10l-10 11q-20 20 -35 20h-7q-23 -3 -49 -15q-19 -9 -41 -24l-13 -8l-20 79
q-3 11 7 18q4 3 10 5l5 2l4 1l3 1l2 1q57 24 99 24q52 0 88 -35q32 58 67 98q48 55 106 80q44 19 90 19q107 0 146 -90l1 -3z" />
    <glyph glyph-name="uni06440671.fina" unicode="&#xfee0;&#xfb51;" horiz-adv-x="1417" 
d="M1265 232q36 -20 66 -26.5t38 -8.5l30 -1h9q20 0 38 -7.5t31.5 -21t21.5 -31.5t8 -38q0 -42 -29 -70t-70 -28h-9h-40q-11 0 -44.5 3.5t-76.5 19.5t-89.5 49.5t-83.5 93.5q-75 -84 -172 -135t-224 -82q-91 -19 -184.5 -22.5t-185.5 11.5l34 195q63 -12 139 -9.5t153 19.5
q-16 89 -47.5 183.5t-72 188.5t-86.5 184.5t-91.5 171.5t-88 150t-75 119t-52 79t-20.5 30l161 114q1 -3 22.5 -34t56.5 -84.5t80 -127t94 -161.5q121 -214 197 -399.5t110 -343.5q39 22 71.5 52t55 66t33 77.5t5.5 86.5q-7 109 -16.5 226t-19 229.5t-19 213.5t-16.5 177.5
t-11.5 122t-4.5 46.5l196 21q0 -1 3.5 -32t8.5 -84t12 -125t14.5 -156t15.5 -176.5t15.5 -187t14 -187t11.5 -176.5q2 -30 6.5 -56t13.5 -48t24 -39.5t39 -31.5zM652 1555q16 16 20 36q4 22 -10 41q-19 24 -56 24q-17 0 -36 -5q-50 -15 -92 -60q-31 -33 -55 -79q35 -3 65 -3
q107 0 158 41q2 2 6 5zM754 1644q16 -44 -3 -93q-17 -44 -55 -72q-39 -29 -99 -43q-41 -9 -97 -12l-22 -1h-25q-40 0 -69 5q-43 8 -72 27q-6 5 -13 10l-10 11q-20 20 -35 20h-7q-23 -3 -49 -15q-19 -9 -41 -24l-13 -8l-20 79q-3 11 7 18q4 3 10 5l5 2l4 1l3 1l2 1
q57 24 99 24q52 0 88 -35q32 58 67 98q48 55 106 80q44 19 90 19q107 0 146 -90l1 -3z" />
    <glyph glyph-name="uniFDF2" unicode="&#xfedf;&#xfee0;&#x651;&#xfeea;" horiz-adv-x="2197" arabic-form="isolated" 
d="M1155 -3v-3q-33 0 -67 3h-12v1q-5 0 -9.5 0.5t-9.5 1.5q-52 8 -84 31q-79 38 -131 121q-125 -18 -220 -18q-257 0 -358 125q-28 33 -40.5 70t-14 72t4.5 64.5t15 48.5l1 5q41 85 103.5 149t129.5 110t130 75.5t105 45.5q-7 75 -11.5 122.5t-4.5 49.5l196 17
q28 -325 54 -518.5t49 -254.5q47 -123 120 -124q73 -2 117 0q45 3 75 26.5t45 57.5q16 34 -38 894l198 21q31 -430 46.5 -647t15.5 -221q0 -18 5.5 -46t31.5 -58t68 -31q63 -2 106.5 8t61.5 36q18 22 22.5 51t4.5 58q0 9 -75 902l194 44q70 -929 69 -1011q-2 -83 -68 -181
t-263 -93q-50 -8 -102 9q-20 2 -38 9q-70 29 -109 65q-11 -8 -20.5 -16t-19.5 -15q-57 -36 -118.5 -46t-113.5 -10h-41zM720 696q-36 -16 -79.5 -39.5t-86 -55.5t-80.5 -72.5t-63 -90.5q-2 -7 -3.5 -24t11.5 -32q7 -8 29.5 -21.5t71.5 -21.5q49 -7 112 -7t141 9
q-11 58 -24.5 142.5t-28.5 212.5zM1272 1320q-53 0 -87 39q-19 26 -28 63.5t-7 90.5q1 35 5.5 60t5.5 27l78 -17q-2 -10 -3 -22q-2 -11 -2.5 -24.5t-1.5 -27.5q-2 -35 3 -60t14 -38q3 -3 7.5 -6t15.5 -3q13 0 25 8t21.5 20.5t17.5 28t13 30.5q7 20 11 39t7 34q3 18 5 34
l83 -3q0 -15 2 -33q2 -15 5.5 -33.5t9.5 -38.5q4 -14 9 -28.5t12.5 -26.5t17.5 -20t22 -8q17 0 27 7q5 7 12.5 25.5t7.5 61.5q0 22 -6 47t-15 47.5t-18 41t-15 28.5l70 40q1 -2 11.5 -20.5t22.5 -47.5t22 -65t10 -71q0 -98 -46 -144q-12 -12 -24.5 -18.5t-24 -9.5
t-20.5 -3.5t-14 -0.5q-57 0 -99 51q-8 10 -15 21.5t-12 25.5q-15 -31 -32 -50.5t-34.5 -31t-35 -15.5t-33.5 -4zM1344 1717q20 71 19 146t-19 141l73 23q16 -60 18.5 -143t-19.5 -189z" />
    <glyph glyph-name="uniFDFC" unicode="&#x631;&#xfef3;&#xfe8e;&#x644;" horiz-adv-x="3302" arabic-form="isolated" 
d="M3083 650q28 -93 53 -184q10 -39 21 -81t20.5 -84t16.5 -81.5t11 -73.5q1 -11 2 -25t1 -31q0 -87 -25.5 -169t-71 -157.5t-108 -144.5t-136 -129.5t-155 -112.5t-165.5 -93l-87 176q105 52 204 120.5t176.5 149.5t124.5 172t47 188q0 5 -1 16.5t-2 22.5v-1
q-3 31 -10 67.5t-16 75t-19 77t-20 74.5q-24 84 -51 168zM1869 98q0 42 28.5 70t69.5 28h103q53 -2 102 0.5t90 14.5t72.5 36.5t51.5 66.5q20 43 11.5 122.5t-40.5 185.5q-11 32 -25.5 69.5t-28.5 69.5q-16 38 -33 75l178 88q0 -1 9.5 -20.5t23.5 -52.5t31 -76.5t32 -92.5
q93 -287 23 -448q-71 -161 -252 -212q-54 -16 -105.5 -19t-96.5 -3h-137h-9q-41 0 -69.5 28t-28.5 70zM2033 -361l-162 -162l-164 163l162 163zM2443 -362l-162 -163l-164 164l162 162zM411 339q-29 -44 -52 -106q-20 -54 -36.5 -132t-16.5 -183q0 -99 38 -169.5
t94.5 -115.5t120.5 -67t116 -25q50 -3 105.5 5t109.5 29t103 56.5t86.5 86t60 117t22.5 151.5q0 79 -2.5 187t-6 231t-8.5 253.5t-10 254.5q-11 291 -26 609l196 8q15 -320 26 -613q5 -125 10 -256t8.5 -254.5t6 -232t2.5 -187.5q0 -126 -32 -223.5t-85.5 -170t-123 -121.5
t-145.5 -78.5t-153 -40.5t-144 -7q-61 3 -126.5 19t-128.5 46.5t-119.5 75.5t-99 107.5t-67.5 143t-24 181.5q1 129 20 222.5t42 156.5q26 72 60 122zM2014 0q-110 0 -188.5 26t-132.5 80q-33 33 -50.5 71t-26 75t-9.5 70.5t-1 57.5v19q0 1 1 36.5t1.5 96t0.5 139.5t-1 167
q0 86 -2 179t-6 180t-11 160.5t-16 120.5l196 36q9 -51 16 -125t11.5 -161t6.5 -181.5t2 -184.5q1 -88 1 -169v-144t-0.5 -104t-0.5 -49v-18q-1 -44 3 -77.5t27 -55.5q45 -47 170 -48h9q20 0 38 -8t31.5 -21.5t21.5 -31.5t8 -38q0 -42 -29 -70t-70 -28z" />
    <glyph glyph-name="tooman" unicode="&#xfe97;&#xfeee;&#xfee3;&#xfe8e;&#x646;" horiz-adv-x="4963" 
d="M2048 -1q-110 0 -188.5 26t-132.5 80q-33 33 -50.5 71t-26 75t-9.5 70.5t-1 57.5v19q0 1 1 36.5t1.5 96t0.5 139.5t-1 167q0 86 -2 179t-6 180t-11 160.5t-16 120.5l196 36q9 -51 16 -125t11.5 -161t6.5 -181.5t2 -184.5q1 -88 1 -169v-144t-0.5 -104t-0.5 -49v-18
q-1 -44 3 -77.5t27 -55.5q45 -47 170 -48h9q20 0 38 -8t31.5 -21.5t21.5 -31.5t8 -38q0 -42 -29 -70t-70 -28zM1929 98q0 41 28 68.5t69 29.5h1q84 0 142 27.5t101 73t75 104t63 120.5q26 54 52 103t60 90q90 110 218 110q151 0 251 -121q80 -96 96 -241q10 -69 3 -135
t-29 -125q-29 -72 -77 -118.5t-111 -63.5q-112 -30 -253 27q-97 38 -203 116q-7 -7 -10 -9q-149 -154 -378 -154h-1q-41 0 -69 28.5t-28 69.5zM2530 325q91 -67 166 -97t125 -16q17 4 33 23t27.5 49t16 69t-1.5 84q-1 7 -5 24t-11.5 38t-19.5 43.5t-29 41t-40 30.5t-53 12
q-20 0 -37.5 -11.5t-35 -35.5t-37 -60t-44.5 -85zM4388 1246l-162 -162l-164 163l162 163zM4798 1245l-162 -163l-164 164l162 162zM3872 98q0 42 28.5 70t69.5 28h111q35 -1 76 -0.5t83 4.5t82.5 11.5t74.5 21t60 33.5t39 48q20 43 11.5 122.5t-40.5 185.5
q-11 32 -25.5 69.5t-28.5 69.5q-16 38 -33 75l178 88q0 -1 9.5 -20.5t23.5 -52.5t31 -76.5t32 -92.5q93 -287 23 -448q-71 -161 -252 -212q-27 -8 -69 -12.5t-86 -6.5t-84 -2.5t-62 -0.5h-145h-9q-41 0 -69.5 28t-28.5 70zM3174 -509q154 31 276 86t209 124t137.5 146.5
t61.5 152.5q-42 -1 -99.5 -0.5t-112.5 5.5q-217 14 -321 142q-46 58 -58.5 134t-1 155.5t42.5 154t73 128.5q50 63 110 95.5t124 32.5q142 0 261 -128q42 -47 76 -106t58 -126.5t38 -141t16 -149.5h75q21 0 39 -7.5t31.5 -21t21.5 -31.5t8 -39q0 -20 -8 -37.5t-21.5 -31
t-31.5 -21t-39 -7.5h-90q-30 -148 -108.5 -267.5t-190 -208.5t-248.5 -146t-282 -80zM3615 650q-29 0 -55 -22.5t-46.5 -57.5t-34.5 -78.5t-19.5 -86t-0.5 -79t22 -57.5q15 -20 38 -32.5t48 -20t49.5 -11t42.5 -4.5q63 -4 115.5 -3t91.5 4q-3 63 -15 120.5t-30.5 106.5
t-42.5 88.5t-49 68.5q-10 10 -22.5 21.5t-27 21t-31 15.5t-33.5 6zM741 -628q-265 0 -433 150q-79 69 -127.5 162t-64.5 204q-10 61 -9 122.5t8 118.5t19 107.5t24 90.5q31 102 67.5 174.5t60.5 107.5l159 -117q-13 -18 -30 -51.5t-34.5 -78t-33.5 -98.5t-26.5 -112.5
t-13.5 -118.5t5 -117q4 -26 16 -61t34.5 -72t57 -73.5t84 -66t115 -49t151.5 -23.5q5 0 4 -0.5t-3 -0.5h-3t4 1q212 9 342 84t176 214q26 86 27.5 173t-12 167t-37 149.5t-46.5 121t-40 81t-18 29.5l166 106q3 -5 25 -42t50 -99.5t56 -146t43 -180.5t11.5 -204t-38.5 -215
q-29 -94 -86 -169.5t-141 -130.5q-91 -63 -208 -96t-262 -40q-10 0 -20 -0.5t-19 -0.5zM982 701l-163 -163l-164 164l163 163z" />
    <glyph glyph-name="yeye" unicode="&#xfef4;&#xfef4;" horiz-adv-x="1728" 
d="M-105 98q0 42 28 70.5t70 28.5h76q84 0 161 10t135.5 37t92.5 73.5t31 119.5q-2 56 -9.5 116t-29.5 137l187 53q9 -35 17 -73.5t14 -78.5t10.5 -80.5t6.5 -79.5q2 -37 9 -78t25 -76t49.5 -58t82.5 -23q42 0 71 -28t29 -70q0 -21 -8 -38.5t-21.5 -31t-31 -21t-37.5 -7.5
q-101 0 -167 36.5t-108 91.5q-36 -35 -93 -59.5t-125.5 -39.5t-143.5 -22t-147 -7h-76q-42 0 -70 28t-28 70zM311 -482l-162 -162l-164 163l162 163zM691 -483l-162 -163l-164 164l162 162zM763 98q0 42 28 70.5t70 28.5h76q84 0 161 10t135.5 37t92.5 73.5t31 119.5
q-2 56 -9.5 116t-29.5 137l187 53q9 -35 17 -73.5t14 -78.5t10.5 -80.5t6.5 -79.5q2 -37 9 -78t25 -76t49.5 -58t82.5 -23q42 0 71 -28t29 -70q0 -21 -8 -38.5t-21.5 -31t-31 -21t-37.5 -7.5q-101 0 -167 36.5t-108 91.5q-36 -35 -93 -59.5t-125.5 -39.5t-143.5 -22t-147 -7
h-76q-42 0 -70 28t-28 70zM1243 -380l-162 -162l-164 163l162 163zM1623 -381l-162 -163l-164 164l162 162z" />
    <glyph glyph-name="yeye1" unicode="&#xfef3;&#xfef4;" horiz-adv-x="1788" 
d="M1244 -345l-162 -162l-164 163l162 163zM1624 -346l-162 -163l-164 164l162 162zM762 98q0 42 28.5 70t69.5 28h111q35 -1 76 -0.5t83 4.5t82.5 11.5t74.5 21t60 33.5t39 48q20 43 11.5 122.5t-40.5 185.5q-11 32 -25.5 69.5t-28.5 69.5q-16 38 -33 75l178 88
q0 -1 9.5 -20.5t23.5 -52.5t31 -76.5t32 -92.5q93 -287 23 -448q-71 -161 -252 -212q-27 -8 -69 -12.5t-86 -6.5t-84 -2.5t-62 -0.5h-145h-9q-41 0 -69.5 28t-28.5 70zM-105 98q0 42 28 70.5t70 28.5h76q84 0 161 10t135.5 37t92.5 73.5t31 119.5q-2 56 -9.5 116t-29.5 137
l187 53q9 -35 17 -73.5t14 -78.5t10.5 -80.5t6.5 -79.5q2 -37 9 -78t25 -76t49.5 -58t82.5 -23q42 0 71 -28t29 -70q0 -21 -8 -38.5t-21.5 -31t-31 -21t-37.5 -7.5q-101 0 -167 36.5t-108 91.5q-36 -35 -93 -59.5t-125.5 -39.5t-143.5 -22t-147 -7h-76q-42 0 -70 28t-28 70z
M311 -482l-162 -162l-164 163l162 163zM681 -483l-162 -163l-164 164l162 162z" />
    <glyph glyph-name="uni0621" unicode="&#x621;" horiz-adv-x="1019" arabic-form="isolated" 
d="M746 503q-18 9 -38 16q-17 6 -40.5 12.5t-51.5 11.5q-44 6 -91 -1q-50 -13 -84 -50t-43 -84q-3 -23 4 -55l-1 3q7 -27 22.5 -51.5t37.5 -44.5t49 -33.5t57 -17.5q16 -2 31.5 -3t31.5 4q40 6 79 19t70 26q36 14 69 32l67 -125q-62 -33 -154.5 -68t-225.5 -84l-356 -132
l-50 136l280 105q-55 34 -94 87t-53 114q-14 52 -5 109q7 45 27 85.5t51 73.5t71 56.5t86 34.5q74 17 146 6q33 -5 63 -14.5t54 -17.5q27 -11 52 -22z" />
    <glyph glyph-name="uni0627" unicode="&#x627;" horiz-adv-x="536" arabic-form="isolated" 
d="M368 1579q44 -407 51 -728q11 -530 -16 -860l-197 11q32 445 20 747q-20 485 -54 800z" />
    <glyph glyph-name="uniFE8E" unicode="&#x627;" horiz-adv-x="624" arabic-form="final" 
d="M626 0q-110 0 -188.5 26t-132.5 80q-33 33 -50.5 71t-26 75t-9.5 70.5t-1 57.5v19q0 1 1 36.5t1.5 96t0.5 139.5t-1 167q0 86 -2 179t-6 180t-11 160.5t-16 120.5l196 36q9 -51 16 -125t11.5 -161t6.5 -181.5t2 -184.5q1 -88 1 -169v-144t-0.5 -104t-0.5 -49v-18
q-1 -44 3 -77.5t27 -55.5q45 -47 170 -48h9q20 0 38 -8t31.5 -21.5t21.5 -31.5t8 -38q0 -42 -29 -70t-70 -28z" />
    <glyph glyph-name="uni062D" unicode="&#x62d;" horiz-adv-x="1647" arabic-form="isolated" 
d="M868 -587q142 0 269 42t250 130l114 -161q-148 -102 -315 -158.5t-356 -56.5q-154 0 -288 42t-233.5 122t-157 197t-57.5 266v21.5t1 22.5q6 105 51.5 199t121.5 174t177.5 144t220 109t249.5 68.5t265 23.5q-63 28 -122.5 64.5t-110.5 62.5q-45 23 -82.5 44.5t-75 39
t-78.5 28.5t-93 12q-41 0 -84 -17.5t-83.5 -46t-75 -64t-58.5 -72.5q-47 30 -83 53.5t-79 51.5q36 60 82 111t103 89.5t126.5 62t152.5 29.5q117 -2 227.5 -42.5t215.5 -109.5q79 -52 144.5 -91.5t124 -68t112.5 -48t110 -31.5q-9 -34 -17 -62.5t-16 -56t-16 -55.5t-17 -61
q-41 0 -65.5 1t-50.5 2q-109 2 -230 -14.5t-238.5 -49.5t-225 -82t-191 -112t-135.5 -139.5t-59 -164.5q-2 -115 46 -199t128 -139.5t184.5 -82.5t217.5 -27z" />
    <glyph glyph-name="uniFEA3" unicode="&#x62d;" horiz-adv-x="1587" arabic-form="initial" 
d="M-101 98q0 42 29 70t71 28h198q134 0 266.5 25.5t261.5 67.5t252 96t237 111q-68 24 -131.5 52t-124.5 57q-47 22 -91.5 42.5t-85.5 36.5t-78.5 25.5t-68.5 9.5q-41 0 -78 -18t-68.5 -45.5t-56.5 -59t-42.5 -59t-27.5 -46t-10 -19.5l-180 81q1 2 8.5 17.5t21.5 40t35 55
t48 62.5q77 94 165.5 141t184.5 47q48 0 98 -11t101 -29.5t103.5 -42.5t106.5 -49q59 -28 119.5 -55t121.5 -48.5t122 -34.5t123 -13l38 -190q-70 -29 -139.5 -62.5t-143.5 -70.5q-110 -55 -236.5 -110t-265 -99.5t-286.5 -72.5t-299 -28h-190h-8q-21 0 -39 7.5t-31.5 21
t-21.5 31.5t-8 38z" />
    <glyph glyph-name="uniFEA4" unicode="&#x62d;" horiz-adv-x="1667" arabic-form="medial" 
d="M-99 97q0 20 7.5 38t21 31.5t31.5 21.5t39 8h183q134 0 257.5 25.5t239.5 66.5t226 93.5t218 105.5l18 9q-68 24 -131.5 53t-124.5 57q-46 22 -90.5 42t-86 35.5t-79 25t-69.5 9.5q-42 0 -79 -18t-68 -45t-56 -58.5t-42 -59t-26.5 -46l-9.5 -18.5l-181 82q0 1 7.5 16
t22 40t35 56t47.5 63q78 91 166.5 139t183.5 48q48 0 98 -11t101 -29.5t103.5 -42t106.5 -48.5q59 -29 119.5 -56t121.5 -49t122.5 -35t122.5 -13l39 -189q-45 -19 -90.5 -40.5t-91.5 -43.5q11 -38 35.5 -64.5t56.5 -45t67.5 -29t69.5 -16.5t63.5 -7.5t47.5 -1.5h6h8
q21 0 39 -8t31.5 -21.5t21 -31.5t7.5 -38q0 -42 -28.5 -69.5t-70.5 -27.5h-14q-99 0 -183 18.5t-150 53.5t-113.5 85.5t-72.5 114.5q-102 -51 -212 -100t-228 -87.5t-245.5 -62t-265.5 -23.5l-183 1q-42 0 -70.5 27.5t-28.5 69.5z" />
    <glyph glyph-name="uniFEA2" unicode="&#x62d;" horiz-adv-x="1702" arabic-form="final" 
d="M912 -791q-142 0 -270 40.5t-228.5 113.5t-167 173t-86.5 218.5t13 251.5t133 272q120 140 300 224q123 57 254 89t257 47l-108 52q-105 53 -192 91.5t-145 46.5q-139 19 -251 -99q-33 -36 -53.5 -69t-29.5 -51l-5 -12l-184 76q2 4 10.5 22t24.5 44.5t39 58.5t54 65
q88 97 194.5 137t226.5 24q84 -11 180.5 -53.5t217.5 -102.5q109 -54 232 -111t268 -105l-38 -192q-2 0 -18.5 0.5t-46 1t-70 -0.5t-89.5 -4q-2 -11 -2.5 -30.5t2.5 -42.5t12 -48t27 -47q24 -29 54.5 -47t70 -28.5t89.5 -14t113 -3.5q20 0 38 -8t31.5 -21.5t21.5 -31.5
t8 -39q0 -41 -29 -68.5t-70 -27.5q-92 0 -166.5 10.5t-133.5 31.5t-104.5 52.5t-79.5 74.5q-36 48 -57 106.5t-24 125.5q-3 21 0 38q-112 -14 -227 -41t-220 -75q-24 -11 -56.5 -30t-68.5 -45.5t-71.5 -61t-65.5 -78t-50.5 -96t-25.5 -115.5q-8 -128 43 -225t141 -160.5
t206 -92.5t238 -22t237 51.5t203 128.5l129 -152q-71 -63 -149 -104.5t-159.5 -66t-164 -35t-162.5 -10.5z" />
    <glyph glyph-name="uni062F" unicode="&#x62f;" horiz-adv-x="1127" arabic-form="isolated" 
d="M545 1q-48 0 -113.5 12t-130.5 30.5t-119 41.5t-79 46l82 188q37 -24 89 -46.5t111 -39t121.5 -24.5t120.5 -3t108 25t84 61q27 31 7 116q-11 49 -35.5 102.5t-59 107t-76.5 104.5t-87.5 94.5t-92.5 77.5t-92 54l81 182q59 -27 119 -70t116.5 -97t108 -116.5t93.5 -129
t73 -133.5t46 -131q12 -56 12 -101t-8.5 -80t-22.5 -61t-30 -45q-92 -111 -257 -147q-38 -10 -80 -14t-89 -4z" />
    <glyph glyph-name="uni0631" unicode="&#x631;" horiz-adv-x="739" arabic-form="isolated" 
d="M494 650q28 -93 53 -184q10 -39 21 -81t20.5 -84t16.5 -81.5t11 -73.5q1 -11 2 -25t1 -31q0 -87 -25.5 -169t-71 -157.5t-108 -144.5t-136 -129.5t-155 -112.5t-165.5 -93l-87 176q105 52 204 120.5t176.5 149.5t124.5 172t47 188q0 5 -1 16.5t-2 22.5v-1q-3 31 -10 67.5
t-16 75t-19 77t-20 74.5q-24 84 -51 168z" />
    <glyph glyph-name="uniFEAE" unicode="&#x631;" horiz-adv-x="816" arabic-form="final" 
d="M625 69q0 -87 -25.5 -169t-71 -158t-108 -144.5t-136 -129.5t-155 -112.5t-165.5 -93.5l-86 177q72 37 143 81t134 95t116 108t89.5 119t54.5 128.5t11 137.5v-2q-7 57 -21.5 122.5t-32 128.5t-34 118.5t-28.5 92.5l188 58q38 -116 74.5 -197.5t75 -133t80.5 -75.5
t92 -24h5q21 0 39 -8t31.5 -21.5t21 -31.5t7.5 -38q0 -42 -28.5 -69.5t-70.5 -27.5h-1q-14 0 -36.5 1t-50 8t-56.5 22t-56 42v-4z" />
    <glyph glyph-name="uni0633" unicode="&#x633;" horiz-adv-x="2692" arabic-form="isolated" 
d="M2428 924q5 -10 18.5 -36t31 -64t36 -86t34 -101t25.5 -110t10 -112q-1 -86 -20.5 -161t-60 -131t-104.5 -88t-155 -32q-28 0 -60 8.5t-64 25t-61 41.5t-50 57q-60 -71 -135 -100t-159 -33q-48 -2 -85 7t-63 21q-31 14 -53 33q3 -87 -9.5 -170.5t-43.5 -159t-82.5 -140.5
t-127.5 -115q-92 -63 -208.5 -96t-261.5 -40q-10 0 -20 -0.5t-19 -0.5q-132 0 -240.5 37.5t-193.5 112.5q-76 67 -125.5 161t-65.5 205q-10 61 -9 122.5t8 118.5t19 107.5t24 90.5q31 102 66.5 174.5t61.5 107.5l159 -117q-20 -26 -47.5 -87t-51 -141t-35 -171t0.5 -177
q4 -26 13.5 -62t29 -74t50 -75.5t76.5 -67t109 -48t148 -18.5h33q213 9 342.5 84t174.5 214q26 82 28.5 165t-10 162t-36 150.5t-48.5 129.5q-24 54 -41.5 83t-17.5 31l167 108q6 -16 16 -38q8 -19 19.5 -45.5t27.5 -61.5q27 -63 56.5 -121.5t66 -103.5t82.5 -71t107 -24
q52 1 84.5 21t52 53t27 77t10 93.5t1 102t-0.5 102.5l203 20l2 -30q1 -13 1 -28t1 -28q1 -25 3.5 -63.5t8.5 -82t17 -87.5t28.5 -79.5t43.5 -57.5t63 -22q34 0 60.5 19.5t44.5 52.5t26 75.5t6 88.5q-3 64 -18.5 122.5t-35.5 110.5t-42 95t-38 75z" />
    <glyph glyph-name="uniFEB3" unicode="&#x633;" horiz-adv-x="1658" arabic-form="initial" 
d="M-92 97q0 19 7 36.5t19.5 31t29.5 21.5t36 10q59 0 106.5 23t84 61.5t64.5 88.5t48 104.5t33.5 110t23.5 104.5l198 -42q-8 -24 -19.5 -62t-22.5 -81.5t-19 -89t-8 -84.5q0 -27 5 -52.5t17 -45.5t33 -32t53 -12q51 0 91.5 28t72 73t54.5 102t39.5 116t27.5 114.5t17 96.5
l192 -35l-5.5 -32.5t-13 -79t-13.5 -99t-6 -93.5q0 -37 5.5 -70.5t18 -59t33 -42t50.5 -19.5q46 -6 76.5 1t48.5 18.5t26.5 24.5t11.5 19h-1q14 22 19.5 50t5.5 60q0 57 -15.5 123t-37 129.5t-45 118t-39.5 86.5l175 92q5 -10 19 -38.5t32 -70t37.5 -93.5t35.5 -109.5
t26.5 -117.5t10.5 -117q0 -86 -24 -155.5t-72 -118.5t-120.5 -75.5t-169.5 -25.5q-39 0 -77 12t-73 32.5t-65 48t-51 59.5q-60 -70 -136 -111t-161 -41q-37 0 -76.5 9.5t-75.5 28.5t-65.5 47t-45.5 65q-60 -63 -136 -100t-182 -39h-16q-19 1 -36 9t-29.5 21t-19.5 30.5
t-7 37.5z" />
    <glyph glyph-name="uniFEB4" unicode="&#x633;" horiz-adv-x="1851" arabic-form="medial" 
d="M-108 98q0 19 8.5 36.5t22 31t31.5 21.5t37 9h10q42 0 80 22.5t71 57.5t60.5 78t49.5 84q21 40 37.5 79.5t29.5 74t21.5 62t13.5 43.5q5 23 5 24l192 -53q-1 -1 -2.5 -7t-4.5 -17q-6 -23 -15 -67t-17 -98q-11 -87 -5 -152.5t27 -99.5q14 -26 44 -29q12 -3 22 -3
q38 0 73 25q45 34 88 107t77 179q17 49 28 93t17 75q5 25 8 39.5t3 16.5l195 -37q-2 -1 -4 -15.5t-7 -40.5t-9 -63.5t-5 -79.5q-5 -91 8 -158t41 -101q11 -14 29.5 -25t55.5 -11q52 0 84 36q34 37 54.5 109t26.5 170q2 45 2 83.5t-2 66.5q-3 25 -3.5 40.5t-0.5 16.5l196 16
q2 -5 4 -56q3 -21 6.5 -48t9.5 -58.5t14 -66t19 -68.5q79 -244 221 -244h12h8q42 0 70 -28t28 -70q0 -41 -28 -69.5t-70 -28.5h-8h-12q-81 0 -151.5 33.5t-126.5 98.5q-28 31 -55 75q-28 -62 -66 -103q-45 -51 -104 -77.5t-128 -26.5q-74 0 -135 28.5t-104 82.5
q-14 18 -26 38t-22 43q-56 -82 -122 -132q-89 -63 -189 -63q-14 0 -27 1.5t-27 3.5q-118 22 -181 120q-10 17 -18 35.5t-16 38.5q-33 -43 -67 -75q-124 -121 -273 -121h-10q-20 0 -38 7.5t-31.5 21t-21.5 31.5t-8 38z" />
    <glyph glyph-name="uniFEB2" unicode="&#x633;" horiz-adv-x="2889" arabic-form="final" 
d="M2891 197q20 0 38 -8t31.5 -21.5t21.5 -31.5t8 -39q0 -20 -8 -38t-21.5 -31.5t-31.5 -21t-38 -7.5h-9h-11q-81 0 -151.5 34t-126.5 99q-15 16 -28.5 35t-26.5 41q-14 -32 -30.5 -57.5t-35.5 -47.5q-45 -50 -103 -77t-128 -27q-28 0 -59.5 9t-63 26t-60 41.5t-49.5 56.5
q-60 -70 -135.5 -99t-160.5 -34q-47 -2 -83.5 7.5t-62.5 21.5q-30 14 -52 32q3 -87 -9.5 -170.5t-43.5 -159t-83 -140.5t-128 -116q-181 -123 -470 -135q-10 0 -20 -1t-19 -1q-264 0 -434 150q-76 68 -125.5 162t-65.5 205q-10 61 -9 122.5t8 118.5t19 107t24 90
q31 103 66.5 175.5t61.5 107.5l159 -118q-13 -17 -30 -51t-34.5 -78.5t-33.5 -98.5t-26.5 -112t-13.5 -118t5 -117q4 -26 13.5 -62t29 -74.5t50 -76t76.5 -67t109.5 -48t147.5 -18.5h34q212 10 341.5 85t174.5 213q26 82 32.5 170t-1 172t-26.5 159.5t-44 134.5
q-12 27 -19 43.5t-10.5 25.5t-5 12.5l-1.5 3.5l166 108q4 -11 9 -26q5 -13 12 -31t16 -40q24 -63 46.5 -128.5t53.5 -119t75.5 -87t113.5 -33.5q51 0 86.5 19.5t58 52.5t35 77.5t18.5 94.5t8 103t4 104l203 -15q0 -15 -1 -30q-1 -13 -1.5 -28t-1.5 -28q-1 -25 -2 -61t1 -75
t9 -78.5t22 -70.5t39 -50.5t61 -19.5q28 0 45 11t34 31q34 37 54.5 109t26.5 171q2 45 1.5 83.5t-1.5 65.5q-3 26 -3.5 41t-0.5 17l196 14q1 0 2 -15.5t2 -40.5q5 -40 16 -105t33 -136q79 -242 221 -242h20z" />
    <glyph glyph-name="uni0635" unicode="&#x635;" horiz-adv-x="2916" arabic-form="isolated" 
d="M836 -649q-24 0 -49.5 1t-51.5 5q-98 7 -179.5 31t-147.5 64q-63 37 -108.5 87.5t-78.5 113.5q-58 123 -57 280q0 63 10 128.5t28 137.5q15 60 34 114t38 97.5t34.5 74t24.5 43.5l166 -106q-8 -10 -26.5 -48.5t-39 -95t-39.5 -126t-27.5 -141.5t-2.5 -142.5t35 -128.5
q79 -164 353 -187q280 -24 430 105q43 36 71.5 78.5t46.5 87.5t26 89t11 82q6 85 -8 176t-35 171.5t-42.5 143t-31.5 89.5q-4 4 -5 8.5t-4 9.5l184 77l8 -23q32 -75 72 -142t75 -122q13 -20 31.5 -39.5t42.5 -39.5q18 33 42 73t55 83t67.5 87t80.5 86q89 85 194 140t214 75
q128 22 236.5 -9t188.5 -115q60 -60 87 -130.5t22 -146.5q-8 -114 -62.5 -204.5t-151.5 -153.5q-54 -35 -114 -58t-119 -36.5t-115 -20t-104 -7.5q-114 -5 -225.5 11.5t-200.5 48.5q-51 20 -97 44t-87 53q3 -74 0 -144q-10 -139 -63 -255q-29 -66 -69.5 -120.5t-91.5 -98.5
q-184 -155 -475 -155zM1798 209q43 -15 98 -26t116 -16t125 -3t126.5 12t120 29.5t104.5 49.5q115 72 127 205q1 21 -4 40.5t-13.5 36t-18.5 29.5t-18 21q-29 28 -61.5 44t-65.5 23t-64.5 6t-57.5 -7q-81 -14 -159.5 -56t-146.5 -106q-38 -36 -69.5 -74t-57.5 -75t-46 -71
t-35 -62z" />
    <glyph glyph-name="uniFEBB" unicode="&#x635;" horiz-adv-x="1920" arabic-form="initial" 
d="M777 188q53 -6 117.5 -8.5t133 -0.5t139 9.5t136 23t122.5 40t100 59.5q81 66 90 171q0 21 -5.5 40.5t-13.5 36t-18 29.5t-18 21q-29 30 -61 46t-64.5 22t-64.5 4.5t-59 -5.5q-79 -16 -157.5 -57.5t-146.5 -106.5q-46 -44 -83 -90.5t-65.5 -90t-48.5 -81t-33 -62.5z
M-99 98q0 42 29 70t70 28q60 0 102.5 9.5t71.5 23.5t47 30.5t29 31.5q35 47 52 112.5t33 141.5q8 43 17 83t22 79l189 -57q-8 -20 -12.5 -40.5t-9.5 -41.5h1q-4 -20 -8.5 -58t-2 -82t15 -90t41.5 -83q13 29 36.5 74t58.5 99t81.5 112.5t105.5 114.5q44 42 93 77.5t101.5 63
t106 46t106.5 27.5q128 25 236.5 -7t189.5 -116q59 -60 86.5 -130.5t22.5 -146.5q-12 -191 -161 -311q-68 -55 -152 -90t-173.5 -54.5t-179.5 -26.5t-170 -7q-93 0 -161.5 5.5t-97.5 10.5q-81 8 -150 38q-21 10 -40.5 21.5t-39 27.5t-40 37.5t-42.5 50.5q-63 -88 -161 -129
t-235 -42h-9q-41 0 -70 28t-29 70z" />
    <glyph glyph-name="uniFEBC" unicode="&#x635;" horiz-adv-x="1933" arabic-form="medial" 
d="M-99 97q0 42 28.5 70.5t69.5 28.5h9q119 3 161 24q45 23 81 70q35 45 56 111.5t41 154.5q8 38 16.5 76t19.5 75l189 -58q-8 -18 -12.5 -38.5t-9.5 -43.5h1q-4 -20 -7.5 -57.5t-1.5 -80.5t13.5 -86.5t37.5 -76.5l6 -11q13 29 37 74t59 99t81.5 113t103.5 115
q89 85 193.5 139.5t213.5 74.5q128 22 237 -9t189 -116q59 -59 86.5 -130t22.5 -146q-12 -163 -120 -273h231q42 0 71 -28.5t29 -70.5t-29 -69.5t-71 -27.5l-252 -1q-110 0 -176.5 6.5t-106.5 24.5q-105 -29 -211.5 -39t-200.5 -10q-90 0 -156.5 6t-100.5 9q-42 5 -80.5 14
t-70.5 24q-44 19 -78.5 47t-63.5 64q-14 11 -24 30q-64 -85 -161 -128q-99 -47 -252 -47q-41 0 -69.5 27.5t-28.5 69.5zM787 188q54 -6 118 -8.5t133 0t139 10.5t135.5 23.5t123 40t100.5 59.5q84 67 90 169q1 22 -4 41.5t-13 35.5t-18 28.5t-18 20.5q-29 30 -62 46t-66 22
t-64.5 4.5t-57.5 -5.5q-80 -13 -158.5 -54.5t-147.5 -107.5q-46 -43 -83 -90t-65.5 -90.5t-48.5 -81.5t-33 -63z" />
    <glyph glyph-name="uniFEBA" unicode="&#x635;" horiz-adv-x="2868" arabic-form="final" 
d="M1762 208q44 -15 99 -26t116 -16.5t125.5 -3.5t126.5 12t119.5 29.5t104.5 50.5q116 74 125 205q1 22 -4 41t-13 35t-18 28.5t-18 21.5q-28 29 -60.5 45t-66 22t-65.5 5t-57 -5q-81 -14 -159.5 -57t-146.5 -107q-38 -36 -69.5 -74t-57 -74.5t-46 -70.5t-35.5 -61zM2868 0
q-48 0 -93 8.5t-83.5 22t-68 30t-45.5 31.5l-4 4l-13 -8q-54 -35 -114 -58t-119 -36.5t-115 -20t-104 -7.5q-115 -5 -226 11.5t-200 49.5q-51 18 -97.5 42t-88.5 55q3 -37 4 -72t-2 -72q-5 -71 -20.5 -134t-41.5 -121q-29 -66 -70 -120.5t-92 -99.5q-184 -155 -474 -155
q-24 0 -49 1t-51 3q-99 10 -180.5 32.5t-147.5 64.5q-127 74 -188 201q-30 61 -44 131t-13 149q1 63 10.5 128.5t27.5 137.5q15 60 34 114.5t37.5 98.5t34.5 74.5t24 44.5l167 -108q-7 -11 -25.5 -50t-39 -95t-40 -125t-28 -141t-2.5 -142.5t35 -129.5q42 -85 128.5 -130
t225.5 -58q140 -11 246.5 14.5t183.5 89.5q43 37 71.5 80t46 88t25.5 89t11 82q4 56 -1 116t-15.5 119t-25.5 114t-29.5 101t-27 80t-18.5 51q-4 5 -5 10t-2 7l182 75q38 -90 78.5 -160.5t77.5 -124.5q13 -20 31 -40.5t42 -38.5q18 33 42 73t55 82.5t68 87t82 86.5
q88 86 193.5 141t212.5 75q128 22 236.5 -9t188.5 -116q60 -60 87 -131t22 -146q-4 -58 -20.5 -109.5t-44.5 -99.5q5 -7 20.5 -14t36.5 -13t45.5 -10t47.5 -4h8q42 0 70.5 -28.5t28.5 -70.5q0 -41 -28.5 -69t-70.5 -28z" />
    <glyph glyph-name="uni0637" unicode="&#x637;" horiz-adv-x="1816" arabic-form="isolated" 
d="M856 0q-33 0 -64.5 1t-61.5 3h-5q-156 8 -311.5 42t-322.5 98l72 185q133 -52 258 -83q21 31 53.5 75t78.5 103q12 86 18 154t7 134.5t-3 141t-11 173.5q-8 108 -17 200.5t-17 160t-13.5 106t-5.5 39.5l196 36l3 -26t8 -68t11 -96t11.5 -110t11 -110t8.5 -97
q4 -56 6.5 -89.5t4 -56.5t2.5 -41.5t1.5 -43.5t1 -63.5t2.5 -101.5q241 229 461 262q49 10 102 5.5t104.5 -20.5t98 -44t82 -66t56.5 -86t23 -104q4 -55 -7.5 -108t-33 -100t-48.5 -87t-54 -68l-1 -2l-2 -2q-89 -80 -181.5 -128.5t-183 -74.5t-176.5 -34.5t-162 -8.5z
M641 208q24 -3 46 -4t48 -3h2q73 -3 157.5 -2.5t173 17t178.5 56.5t176 117q18 19 34.5 44.5t28.5 53.5t18.5 57.5t5.5 57.5q-8 43 -32.5 70t-59 42t-73.5 18.5t-75 -0.5q-101 -16 -222 -100t-255 -233z" />
    <glyph glyph-name="uniFEC3" unicode="&#x637;" horiz-adv-x="1576" arabic-form="initial" 
d="M378 196q23 -1 47.5 -0.5t48.5 0.5q75 0 158.5 1.5t172 18t179.5 54.5t181 112q56 47 78.5 103.5t11.5 113.5q-7 40 -32.5 68t-60 44.5t-74.5 20.5t-77 -4q-103 -23 -222.5 -105t-255.5 -231q-25 -27 -46.5 -53t-42.5 -51zM-102 98q0 20 8 37.5t21.5 31t31.5 21.5t38 8h9
h142q14 22 47.5 81t100.5 143q11 64 16.5 157.5t6.5 220.5q1 125 -5 244.5t-18 236.5q-11 118 -17 175.5t-6 58.5l202 36q55 -417 45 -887q241 224 460 262q51 8 100.5 7.5t96.5 -11.5t90 -34t81 -60q45 -45 70 -97.5t30 -118.5q4 -54 -7.5 -107.5t-32.5 -101.5t-48 -88
t-54 -68l-4 -6q-89 -80 -182 -127t-184 -72.5t-177 -33t-161 -7.5l-592 1h-9q-20 0 -38 7.5t-31.5 20.5t-21.5 31t-8 39z" />
    <glyph glyph-name="uniFEC4" unicode="&#x637;" horiz-adv-x="1583" arabic-form="medial" 
d="M388 196q75 0 145.5 -1t137.5 1.5t130.5 12t126 30t123.5 55t122 88.5q18 18 34.5 43.5t28.5 54t18.5 58.5t5.5 58q-7 42 -32 69t-59.5 42t-73.5 19.5t-74 1.5q-102 -18 -222 -102.5t-256 -232.5q-24 -29 -46 -54.5t-42 -51.5zM-106 98q0 42 28 70t70 28h8h144
q14 21 53 78.5t101 132.5l7 10q10 12 15 56t6.5 109t0.5 147t-5 170t-9.5 177.5t-12 170.5t-13.5 148t-14 110l195 36q32 -203 47.5 -420t13.5 -462q246 229 461 262q200 32 361 -98q98 -83 107 -215q4 -56 -8 -109.5t-33 -100.5t-48 -86.5t-54 -67.5q-9 -9 -19 -17.5
t-19 -15t-15.5 -11l-6.5 -4.5h334q42 0 70 -27.5t28 -69.5q0 -41 -28 -69.5t-70 -28.5h-1v-1q-75 0 -132.5 -0.5t-114.5 -0.5q-44 0 -91.5 1t-97 5.5t-98.5 13t-95 23.5q-97 -29 -186 -35.5t-168 -6.5h-613q-42 0 -70 28t-28 70z" />
    <glyph glyph-name="uniFEC2" unicode="&#x637;" horiz-adv-x="1867" arabic-form="final" 
d="M930 198q60 3 123.5 12t127 30.5t127 57t125.5 90.5q18 19 34.5 44.5t28.5 53.5t18.5 57.5t5.5 57.5q-7 41 -32 68.5t-59.5 43t-74 20t-74.5 -1.5q-101 -16 -222 -100t-255 -233l-151 -191zM949 0q-21 -1 -41.5 -1h-40.5q-23 0 -49.5 0.5t-76.5 3.5h-5q-156 8 -311.5 42
t-322.5 98l72 185q133 -52 258 -83q21 31 52.5 74t72.5 94l7 10q12 86 18 154t7 134.5t-3 141t-11 173.5q-8 108 -17 200.5t-17 160t-13.5 106t-5.5 39.5l196 36l3 -26t8 -68t11 -96t11.5 -110t11 -110t8.5 -97q4 -56 6.5 -89.5t4 -56.5t2.5 -41.5t1.5 -43.5t1 -63.5
t2.5 -101.5q241 229 461 262q49 9 102 5t104.5 -20t98 -44t82 -66t56.5 -86t23 -104q4 -55 -7.5 -108t-33 -100t-48.5 -87t-54 -68l-1 -2l-2 -2q-14 -13 -28 -24.5t-28 -22.5l346 -2h8q42 0 70 -28t28 -70q0 -41 -28 -69.5t-70 -28.5h-919z" />
    <glyph glyph-name="uni0639" unicode="&#x639;" horiz-adv-x="1532" arabic-form="isolated" 
d="M828 -705q-74 0 -151 12t-151.5 39t-144.5 71.5t-130 109.5q-81 88 -117 202.5t-28 245.5q5 101 41.5 192.5t102.5 176.5q112 141 291 231q21 12 42.5 21.5t44.5 19.5l-6 4q-136 94 -152 265q-10 90 15 171.5t84 148.5q63 72 147 113t178 45q155 7 315 -96
q56 -37 88.5 -67.5t37.5 -33.5l-144 -137q-41 40 -88 71q-40 26 -92 47t-107 19q-54 -3 -102.5 -25.5t-82.5 -64.5q-21 -25 -39.5 -67t-13.5 -105q8 -80 68 -122q50 -33 135.5 -50t197.5 -1q46 6 87.5 12.5t73.5 11.5q37 6 69 12l42 -192q-2 0 -21.5 -3.5t-54 -9t-81 -13.5
t-101.5 -17q-87 -14 -151.5 -28.5t-116 -30t-94.5 -34t-88 -40.5q-24 -11 -56 -30.5t-67.5 -47t-70.5 -63.5t-63.5 -80.5t-47.5 -98t-23 -116.5q-7 -121 40 -210.5t129.5 -147.5t190.5 -83t223.5 -17t228 49t204.5 117l115 -166q-82 -68 -161 -109t-155 -63.5t-148.5 -30
t-141.5 -7.5z" />
    <glyph glyph-name="uniFECB" unicode="&#x639;" horiz-adv-x="1138" arabic-form="initial" 
d="M876 604q-34 37 -79 67q-38 26 -92 47t-122 21q-58 0 -102 -19.5t-73.5 -52.5t-44.5 -75.5t-15 -88.5q0 -63 28 -114t74.5 -87t107.5 -54t128 -14q60 4 114 10.5t96 14.5q49 8 92 18l24 -190q-56 -15 -127.5 -30t-167 -27t-218 -20t-281.5 -8l-218 -2q-42 0 -71 28
t-29 70t29 70t71 28l284 3q-73 66 -102.5 140.5t-29.5 163.5q0 88 32.5 166.5t90.5 137.5t136.5 93.5t171.5 34.5q46 0 89 -7.5t81 -20.5t71 -29t60 -33q64 -40 115 -90z" />
    <glyph glyph-name="uniFECC" unicode="&#x639;" horiz-adv-x="1144" arabic-form="medial" 
d="M1146 196q20 0 38 -8t31.5 -21.5t21.5 -31.5t8 -39q0 -41 -29 -69t-70 -28q-160 0 -297 29t-247 94q-63 -30 -137.5 -53t-153 -39t-158 -23.5t-152.5 -7.5q-41 0 -70 28t-29 69q0 21 8 39t21.5 31.5t31.5 21.5t38 8q51 0 108.5 4.5t113.5 12.5t106 19.5t87 26.5
q-39 36 -79 79t-81 90.5t-82 97.5t-83 98l10 139q51 46 106.5 77t109.5 50.5t105 30t93 14.5q102 11 198.5 -2t177.5 -47q53 -24 86 -51.5t51 -55.5t24.5 -52.5t6.5 -42.5q6 -47 -16.5 -106t-61.5 -119t-90 -116t-103 -95q68 -26 162 -39t196 -13zM604 357q28 15 58 39.5
t58.5 54t54 61.5t44.5 62.5t30.5 56t11.5 42.5q-52 34 -120 52t-142 18t-149 -18t-139 -55q83 -101 152 -178t141 -135z" />
    <glyph glyph-name="uniFECA" unicode="&#x639;" horiz-adv-x="1357" arabic-form="final" 
d="M669 -587q60 -9 135.5 -9t155 13t156.5 41t139 73l102 -170q-73 -44 -135 -73.5t-124 -47.5t-129 -25.5t-150 -7.5q-92 0 -187.5 16.5t-183.5 54t-163.5 98.5t-127.5 150q-33 55 -48 124t-14 140.5t17 140t45 122.5q31 55 75.5 104.5t97 91t111.5 75t118 57.5
q-75 68 -135 130.5t-102 108.5l-26 30l-12 122q32 49 78 84.5t95.5 60.5t97.5 40.5t84 24.5q55 12 111 18.5t109.5 6t103 -8t91.5 -21.5q105 -32 160 -97t52 -153q-4 -173 -156 -293q-75 -59 -166 -101q97 -59 200 -98t211 -39q20 0 38 -8.5t31 -22t20.5 -31t7.5 -37.5
q0 -42 -28 -69.5t-69 -28.5q-82 0 -161 17.5t-156.5 49.5t-154 76.5t-153.5 98.5q-77 -30 -155 -70t-141 -94t-103 -123.5t-40 -159.5q0 -50 18 -96.5t48.5 -87t69.5 -74.5t81 -59.5t83.5 -42t77.5 -21.5zM504 716q50 -52 113.5 -117t142.5 -131q74 31 131 60t96 60.5
t59 66.5t22 77q0 10 -6.5 19t-17 16.5t-23.5 13t-25 9.5q-56 17 -123 19t-134.5 -9t-129 -32.5t-105.5 -51.5z" />
    <glyph glyph-name="uniFEDB" unicode="&#x643;" horiz-adv-x="1023" arabic-form="initial" 
d="M-108 97q0 42 30 70.5t78 28.5h105q60 0 125 1.5t124.5 12t108 33t76.5 64.5q33 50 38.5 109t-12.5 128q-11 41 -54.5 104.5t-107.5 136t-143 148.5t-161 142l23 205l822 352l77 -182l-716 -301q49 -42 107 -94t115 -115q76 -84 125 -160.5t76 -145.5t36 -130.5t4 -115.5
t-20.5 -100t-36.5 -84q-89 -158 -301 -197q-38 -7 -87 -7h-323q-48 0 -78 28t-30 69z" />
    <glyph glyph-name="uniFEDC" unicode="&#x643;" horiz-adv-x="1188" arabic-form="medial" 
d="M-109 98q0 20 8 38t21.5 31.5t31.5 21t38 7.5h9h330q40 0 80.5 16t73 43t54 61.5t24.5 70.5q5 57 -14.5 119.5t-55.5 126.5t-84 127t-100.5 119.5t-105.5 104t-98 82.5l26 221l884 381l77 -182l-793 -333q76 -61 133.5 -122.5t103.5 -123.5t82.5 -124t70 -124t66.5 -125
t71 -127q29 -48 62 -86.5t71.5 -65.5t85 -42.5t102.5 -16.5h42q42 0 70 -28.5t28 -69.5q0 -42 -28 -70t-70 -28h-8q-72 0 -126.5 9t-106.5 26q-71 26 -131 76t-105 108q-35 -64 -86 -112q-33 -29 -69.5 -49t-76 -32t-80.5 -18t-82 -8h-326q-41 0 -70 28t-29 70z" />
    <glyph glyph-name="uni0643" unicode="&#x643;" horiz-adv-x="2024" arabic-form="isolated" 
d="M1127 962q-12 3 -27 6q-13 2 -29.5 4.5t-35.5 2.5q-15 0 -30.5 -2.5t-31.5 -9.5v2q-32 -14 -51.5 -42.5t-19.5 -61.5q0 -17 8 -36l-1 1q14 -35 49.5 -58.5t78.5 -23.5q11 0 21 1t21 6q26 8 51 21t45 25q23 14 43 29l59 -78q-39 -29 -98 -62t-144 -80l-227 -126l-48 87
l179 100q-41 17 -72.5 49t-48.5 71q-14 34 -14 74q0 31 9.5 60.5t27 55t42 45.5t54.5 32q47 19 98 19q23 0 44 -3t38 -7q19 -4 38 -9zM1862 955q6 -181 10 -291t4 -156q-1 -50 -11.5 -100t-36.5 -99q-82 -153 -284 -233q-111 -43 -253.5 -65t-319.5 -22q-361 5 -575 84
q-206 78 -280 229q-42 81 -42 176t39 198q14 36 29 66t27.5 52t21.5 35.5l11 16.5l159 -118q-6 -8 -12 -17t-11 -19q-10 -17 -21 -39.5t-21 -50.5q-46 -127 -4 -210q49 -98 224 -150.5t455 -53.5q321 0 500 71q135 55 182 143q15 27 20.5 56.5t6.5 58.5q-2 59 -6 169.5
t-11 261.5q-4 110 -9.5 205.5t-10.5 167.5t-9.5 116.5t-5.5 53.5l196 21q1 -16 5.5 -63.5t10.5 -120.5t11.5 -168t10.5 -205z" />
    <glyph glyph-name="uniFEDA" unicode="&#x643;" horiz-adv-x="2075" arabic-form="final" 
d="M1909 284q10 -20 23 -36.5t32 -27.5t46.5 -17.5t65.5 -6.5h4q41 0 69.5 -28.5t28.5 -69.5t-28.5 -69.5t-69.5 -28.5h-4q-119 0 -203 47q-87 51 -136 145q-81 -82 -211 -133q-111 -43 -253.5 -65t-319.5 -22q-361 5 -575 84q-206 78 -280 229q-42 81 -42 176t39 198
q14 36 29 66t27.5 52t21.5 35.5l11 16.5l159 -118q-40 -55 -65 -126q-46 -127 -4 -210q49 -98 224 -150.5t455 -53.5q321 0 500 71q135 55 182 143q15 27 20.5 56.5t6.5 58.5q-2 59 -10 169.5t-15 261.5q-4 110 -9.5 205.5t-10.5 167.5t-9.5 116.5t-5.5 53.5l196 21
q1 -16 5.5 -63.5t10.5 -120.5t11.5 -168t10.5 -205q1 -37 3.5 -73.5t5.5 -80t6.5 -98t5.5 -129.5q5 -97 17.5 -163.5t34.5 -109.5zM1074 966q-12 3 -27 6q-13 2 -29.5 4.5t-35.5 2.5q-15 0 -30.5 -2.5t-31.5 -9.5v2q-32 -14 -51.5 -42.5t-19.5 -61.5q0 -17 8 -36l-1 1
q14 -35 49.5 -58.5t78.5 -23.5q11 0 21 1t21 6q26 8 51 21t45 25q23 14 43 29l59 -78q-39 -29 -98 -62t-144 -80l-227 -126l-48 87l179 100q-41 17 -72.5 49t-48.5 71q-14 34 -14 74q0 31 9.5 60.5t27 55t42 45.5t54.5 32q47 19 98 19q23 0 44 -3t38 -7q19 -4 38 -9z" />
    <glyph glyph-name="uni0644" unicode="&#x644;" horiz-adv-x="1483" arabic-form="isolated" 
d="M407 339q-29 -44 -52 -106q-20 -54 -36.5 -132t-16.5 -183q0 -99 38 -169.5t94.5 -115.5t120.5 -67t116 -25q50 -3 105.5 5t109.5 29t103 56.5t86.5 86t60 117t22.5 151.5q0 79 -2.5 187t-6 231t-8.5 253.5t-10 254.5q-11 291 -26 609l196 8q15 -320 26 -613
q5 -125 10 -256t8.5 -254.5t6 -232t2.5 -187.5q0 -126 -32 -223.5t-85.5 -170t-123 -121.5t-145.5 -78.5t-153 -40.5t-144 -7q-61 3 -126.5 19t-128.5 46.5t-119.5 75.5t-99 107.5t-67.5 143t-24 181.5q1 129 20 222.5t42 156.5q26 72 60 122z" />
    <glyph glyph-name="uniFEDF" unicode="&#x644;" horiz-adv-x="569" arabic-form="initial" 
d="M-98 98q0 42 28.5 70t69.5 28h9h47q113 0 161 48q52 54 51 206v26q0 45 -5 165t-12 299q-4 110 -9.5 205.5t-10.5 167.5t-9.5 116.5t-5.5 53.5l196 21q1 -16 5.5 -63.5t10.5 -120.5t11.5 -168t10.5 -205q6 -181 10.5 -302t4.5 -167v-14.5t1 -11.5q1 -38 -2 -82.5
t-14 -90.5t-32.5 -91t-58.5 -83q-105 -105 -303 -105h-47h-9q-41 0 -69.5 28.5t-28.5 69.5z" />
    <glyph glyph-name="uniFEE0" unicode="&#x644;" horiz-adv-x="649" arabic-form="medial" 
d="M-111 98q0 41 28.5 69.5t69.5 28.5h9h86q30 1 50.5 3t35.5 5t24.5 7.5t17.5 10.5q15 11 24.5 29.5t15.5 41.5t8.5 48.5t4.5 51.5q0 2 1 40.5t2 102.5t2 148.5t1.5 177t0 188.5t-2.5 184t-5 162t-9 123l195 25q7 -51 11 -126t6.5 -162.5t3 -183t0 -188.5t-1.5 -178.5
t-2 -152.5t-2 -110.5t-1 -53.5q0 -23 5.5 -56.5t25.5 -65.5q19 -31 53.5 -51t102.5 -20q21 0 39 -7.5t31.5 -21t21.5 -31.5t8 -38q0 -42 -29 -70t-71 -28q-50 -1 -92.5 7t-77 22.5t-61.5 33.5t-47 40q-10 -11 -19 -19.5t-19 -16.5q-28 -23 -57.5 -36t-59 -20t-58 -9
t-53.5 -2h-109h-9q-41 0 -69.5 28t-28.5 70z" />
    <glyph glyph-name="uniFEDE" unicode="&#x644;" horiz-adv-x="1532" arabic-form="final" 
d="M390 339q-30 -39 -53 -99q-20 -51 -36 -130.5t-16 -191.5q0 -66 19 -120t50 -95.5t70.5 -72t80.5 -50.5t80 -29.5t69 -9.5q46 0 100.5 6.5t108.5 23t104 45.5t89 74t62 108t23 148q0 79 -2.5 188.5t-6 235t-8.5 259.5t-10 262q-11 300 -26 630l196 8q8 -180 16 -370
q3 -81 7 -172t7.5 -187t7 -193t6.5 -190q4 -63 28 -111q10 -21 25 -40.5t36 -35t49.5 -25t65.5 -9.5q21 0 39 -8t31.5 -21.5t21 -31.5t7.5 -38q0 -42 -28.5 -69.5t-70.5 -27.5q-35 0 -63 3t-51.5 9t-43 14t-38.5 19q1 -27 1 -52v-47q0 -126 -31.5 -219.5t-84.5 -160.5
t-122 -109.5t-145 -67.5t-153.5 -34.5t-146.5 -9.5q-68 0 -136 14.5t-131 44.5t-117.5 76.5t-94.5 110t-63 145t-23 182.5q0 139 19.5 237t43.5 162q28 74 64 123z" />
    <glyph glyph-name="uni0645" unicode="&#x645;" horiz-adv-x="1237" arabic-form="isolated" 
d="M141 -731l-37 927q0 6 0.5 28t7.5 50.5t24 59t49 54.5q13 10 31.5 19.5t42.5 14t53.5 3.5t65.5 -11q11 34 27 72t37 79q31 58 62.5 102.5t63.5 77.5q102 100 220 96q81 -3 147 -35.5t114 -95.5q37 -49 58 -113t26.5 -132.5t-4 -136.5t-33.5 -125q-29 -73 -75 -117
t-104 -54q-28 -4 -62 1t-78 18.5t-99.5 35t-127.5 50.5q-56 24 -111.5 46t-105.5 38q-9 3 -16.5 5t-12.5 2q-3 -15 -3 -24l36 -935h-196zM626 320q46 -20 89.5 -36.5t81.5 -30.5t69.5 -22t38.5 -9q15 24 24.5 60t13 75t1.5 77.5t-11 67.5q-15 51 -36.5 79.5t-43.5 42.5
t-41.5 17t-30.5 3q-35 1 -78 -44t-84 -126q-18 -33 -31.5 -66.5t-24.5 -61.5z" />
    <glyph glyph-name="uniFEE3" unicode="&#x645;" horiz-adv-x="1165" arabic-form="initial" 
d="M-97 98q0 41 28 68.5t69 29.5h1q84 0 142 27.5t101 73t75 104t63 120.5q26 54 52 103t60 90q90 110 218 110q151 0 251 -121q80 -96 96 -241q10 -69 3 -135t-29 -125q-29 -72 -77 -118.5t-111 -63.5q-112 -30 -253 27q-97 38 -203 116q-7 -7 -10 -9q-149 -154 -378 -154
h-1q-41 0 -69 28.5t-28 69.5zM504 325q91 -67 166 -97t125 -16q17 4 33 23t27.5 49t16 69t-1.5 84q-1 7 -5 24t-11.5 38t-19.5 43.5t-29 41t-40 30.5t-53 12q-20 0 -37.5 -11.5t-35 -35.5t-37 -60t-44.5 -85z" />
    <glyph glyph-name="uniFEE4" unicode="&#x645;" horiz-adv-x="1178" arabic-form="medial" 
d="M716 202q79 -14 114 35q27 39 26 113q-1 19 -1 36l-1 10q-9 89 -60 157q-53 72 -117 72q-52 0 -114 -112q-20 -36 -50 -100l-12 -24l-11 -24q-12 -27 -21 -44q149 -100 247 -119zM1171 196q41 0 70 -29q28 -29 28 -69q0 -41 -28 -69q-29 -29 -70 -29q-147 0 -224 99
q-83 -110 -208 -93q-199 26 -387 156q-26 -41 -84 -81q-114 -81 -270 -81q-41 0 -69 29q-29 28 -29 69q0 40 29 69q28 29 69 29q142 0 251 145q36 49 73 121q11 22 27 55l6 13l6 12q6 12 10 21l24 46q14 26 26 46q30 51 61 83q79 84 195 84q136 0 235 -112q92 -105 116 -263
q7 -46 4 -97q8 -71 45 -116q32 -38 94 -38z" />
    <glyph glyph-name="uniFEE2" unicode="&#x645;" horiz-adv-x="1247" arabic-form="final" 
d="M871 229q29 -9 56 45q26 53 27 117v12l-1 13q-9 86 -65 157q-56 72 -115 72q-60 0 -120 -95q-51 -79 -90 -203q156 -75 308 -118zM1241 216q40 0 69 -29q28 -28 28 -69q0 -40 -28 -69q-29 -29 -69 -29q-120 0 -195 90q-87 -117 -212 -74q-178 61 -530 193l35 -949
q-197 -15 -199 -9q-20 461 -37 884q-6 153 68 223q74 72 206 38q28 72 58 133q40 80 84 139q117 154 257 154q136 0 235 -112q92 -105 116 -262q6 -46 4 -97q8 -71 45 -116q32 -39 65 -39z" />
    <glyph glyph-name="uni0647" unicode="&#x647;" horiz-adv-x="990" arabic-form="isolated" 
d="M485 0q-5 0 -24.5 1t-48.5 5.5t-65.5 14t-73.5 27.5q-95 44 -144.5 120t-49.5 179q0 180 163 377q33 39 63.5 70t53.5 52q-30 27 -48 42t-18 16l126 153q1 -2 21.5 -19t52.5 -47t73 -70.5t84 -88.5q122 -139 182.5 -260.5t60.5 -224.5t-45.5 -179t-133.5 -119
q-32 -16 -65 -25.5t-63 -15t-56.5 -7t-44.5 -1.5zM497 704q-29 -26 -67.5 -66t-72.5 -88t-57.5 -100.5t-23.5 -102.5q0 -15 2.5 -31t11 -31.5t24.5 -30.5t43 -27q19 -9 39 -14.5t37 -8.5t31 -4t21 -1q9 0 25.5 0.5t36 3t40 8t39.5 14.5q37 20 53.5 48.5t16.5 73.5
q0 65 -50 156t-145 197q-1 1 -1.5 2t-2.5 2z" />
    <glyph glyph-name="uniFEEB" unicode="&#x647;" horiz-adv-x="1522" arabic-form="initial" 
d="M-104 99q0 20 8 37.5t22 31t32.5 21t39.5 7.5h9q60 0 105.5 1t82.5 3t67.5 5t59.5 7q-75 81 -112.5 159.5t-37.5 151.5q0 50 13.5 105.5t42 107t71.5 96t103 73.5l-79 31l95 180l348 -143q93 -41 179.5 -82t160 -82t129.5 -83t87 -84q92 -127 92 -260q0 -98 -52 -183.5
t-157 -141.5l1 1q-28 -17 -66 -28.5t-79.5 -18.5t-83.5 -10.5t-77 -3.5q-88 0 -170.5 13t-167.5 47q-53 -16 -119.5 -27t-139.5 -17.5t-149 -9.5t-147 -3h-9q-21 0 -39.5 7.5t-32.5 21t-22 31.5t-8 39zM956 571q0 -42 -12 -91t-33.5 -98.5t-52.5 -97.5t-69 -88q32 -5 53 -6
t39 -1h48q76 0 132.5 16.5t93 44.5t54.5 65.5t18 78.5q0 35 -18 76t-53.5 82.5t-88.5 81.5t-124 73q11 -38 12 -72t1 -64zM751 579q0 30 -4.5 63.5t-19 64t-41 54t-69.5 32.5q-55 11 -101 -10.5t-79.5 -60.5t-52.5 -88t-19 -94q0 -42 15 -80t40.5 -71.5t59.5 -63t72 -54.5
q51 23 88.5 58t62 76.5t36.5 86.5t12 87z" />
    <glyph glyph-name="uniFEEC" unicode="&#x647;" horiz-adv-x="1035" arabic-form="medial" 
d="M542 705q-28 -3 -56 -29.5t-52.5 -68t-44.5 -93.5t-33 -106t-18.5 -106.5t0.5 -93.5q66 -8 119 16.5t91 69t58.5 101.5t21 115t-20 110t-65.5 85zM-99 98q0 41 28 69.5t70 28.5h142q-3 58 6.5 133t31.5 154t55.5 154.5t79 136t102.5 99t125 41.5q58 3 104.5 -29
t80.5 -84.5t55 -119t29 -134t1.5 -129t-26.5 -102.5q-23 -66 -63.5 -117t-93.5 -88t-115.5 -61t-129.5 -35q12 -29 31.5 -71t44.5 -84t54.5 -78.5t61.5 -55.5q-5 63 11 122.5t48 111.5t77 95.5t98 74.5t110.5 48.5t115.5 17.5q42 0 70.5 -28.5t28.5 -69.5q0 -42 -28.5 -70
t-70.5 -28h-8q-55 -2 -104.5 -28t-88 -67t-62.5 -93t-28 -107.5t15 -110t66 -100.5l-125 -152q-106 64 -189 140t-146 158t-107 167t-71 168l-9 25h-179q-42 0 -70 28t-28 70z" />
    <glyph glyph-name="uniFEEA" unicode="&#x647;" horiz-adv-x="1090" arabic-form="final" 
d="M642 702q-24 -10 -57 -24.5t-68.5 -33t-70 -41t-62 -48t-44.5 -55t-17 -61.5q0 -33 20.5 -53.5t53 -32t73.5 -15.5t82.5 -3.5t79 4.5t63.5 9q-12 58 -24.5 142t-28.5 212zM544 140q-258 0 -359 125q-28 34 -39.5 72.5t-13 75.5t4.5 69t15 53q27 56 64.5 103t80 84.5
t88 67t88 51.5t80.5 38t66 26q-8 76 -11.5 111.5t-3.5 36.5l196 41v1q1 -9 4 -37t7 -66.5t8.5 -82t8.5 -81.5t7 -66t4 -35q15 -129 28 -211t23 -130.5t16.5 -69.5t9.5 -27q12 -27 27.5 -45t36.5 -28.5t48 -15t62 -4.5q41 0 70 -28t29 -70q0 -20 -8 -38t-21.5 -31.5
t-31.5 -21t-38 -7.5q-38 0 -90.5 6.5t-104.5 30.5q-80 38 -132 122q-62 -10 -116 -14.5t-103 -4.5z" />
    <glyph glyph-name="uni0648" unicode="&#x648;" horiz-adv-x="1078" arabic-form="isolated" 
d="M518 650q-29 0 -55 -22.5t-46.5 -57.5t-34.5 -78.5t-19.5 -86t-0.5 -79t22 -57.5q15 -20 38 -32.5t48 -20t49.5 -11t42.5 -4.5q63 -4 115.5 -3t91.5 4q-3 63 -15 120.5t-30.5 106.5t-42.5 88.5t-49 68.5q-10 10 -22.5 21.5t-27 21t-31 15.5t-33.5 6zM77 -509
q154 31 276 86t209 124t137.5 146.5t61.5 152.5q-42 -1 -99.5 -0.5t-112.5 5.5q-217 14 -321 142q-46 58 -58.5 134t-1 155.5t42.5 154t73 128.5q50 63 110 95.5t124 32.5q142 0 261 -128q51 -56 89.5 -129.5t62.5 -157.5t32.5 -175t-0.5 -182q-11 -110 -49 -205.5
t-97 -176.5t-136.5 -147t-167 -115.5t-188.5 -83t-202 -49.5z" />
    <glyph glyph-name="uniFEEE" unicode="&#x648;" horiz-adv-x="1043" arabic-form="final" 
d="M78 -509q154 31 276 86t209 124t137.5 146.5t61.5 152.5q-42 -1 -99.5 -0.5t-112.5 5.5q-217 14 -321 142q-46 58 -58.5 134t-1 155.5t42.5 154t73 128.5q50 63 110 95.5t124 32.5q142 0 261 -128q42 -47 76 -106t58 -126.5t38 -141t16 -149.5h75q21 0 39 -7.5t31.5 -21
t21.5 -31.5t8 -39q0 -20 -8 -37.5t-21.5 -31t-31.5 -21t-39 -7.5h-90q-30 -148 -108.5 -267.5t-190 -208.5t-248.5 -146t-282 -80zM519 650q-29 0 -55 -22.5t-46.5 -57.5t-34.5 -78.5t-19.5 -86t-0.5 -79t22 -57.5q15 -20 38 -32.5t48 -20t49.5 -11t42.5 -4.5
q63 -4 115.5 -3t91.5 4q-3 63 -15 120.5t-30.5 106.5t-42.5 88.5t-49 68.5q-10 10 -22.5 21.5t-27 21t-31 15.5t-33.5 6z" />
    <glyph glyph-name="uni0649" unicode="&#x649;" horiz-adv-x="1793" arabic-form="isolated" 
d="M1391 832q69 14 132 10t111 -15t77.5 -23t32.5 -13l-87 -183l-19 7.5t-49.5 14t-71 9t-84.5 -6.5q-42 -4 -87.5 -26t-87.5 -57t-78 -79.5t-59.5 -92.5t-31.5 -97t7 -92q13 -37 45.5 -59t76.5 -37t95.5 -26t101.5 -25.5t95 -35.5t76.5 -56.5t45 -88t0.5 -129.5
q-18 -98 -88 -180t-186 -140q-110 -56 -249.5 -85t-303.5 -29q-189 0 -334.5 54.5t-238.5 158.5q-82 94 -115.5 218t-15.5 271q8 65 22 134.5t30.5 135.5t34 125.5t32 105.5t24 74t11.5 32l191 -67q-45 -140 -84 -279t-58 -285q-5 -36 -5.5 -78t8 -85.5t27 -86t51.5 -79.5
q63 -72 169.5 -108t250.5 -36q142 0 256 22.5t194.5 60t125.5 85t50 98.5q2 24 -17 40t-52 28t-76.5 22t-91 23.5t-94.5 32t-87 46t-69.5 67t-40.5 95.5q-16 79 -7.5 157.5t36.5 152t74 139t105.5 118t130.5 89.5t149 54z" />
    <glyph glyph-name="uniFEF0" unicode="&#x649;" horiz-adv-x="1715" arabic-form="final" 
d="M830 -652q-87 0 -180 8.5t-179 34.5t-158 73.5t-118 125.5q-108 158 -96 410q7 137 49 299t121 353l183 -74q-128 -314 -151.5 -535t57.5 -344q41 -59 101.5 -90.5t126 -45.5t130 -16t114.5 -2q29 0 82 4.5t115 15.5t126.5 29.5t117 45.5t85.5 64t33 86q0 12 -11 28.5
t-35.5 35.5t-63.5 40t-96 42q-35 12 -69.5 22.5t-64.5 18t-55 13.5t-41 9l-22 4l15 194l770 -1q41 0 70 -28t29 -70t-29 -70t-70 -28h-239q34 -28 55.5 -56.5t33.5 -55.5t16 -52t4 -46q-1 -85 -39 -151t-100 -115t-141 -82.5t-162.5 -54.5t-165.5 -30t-148 -9z" />
    <glyph glyph-name="uni066E.init" unicode="&#x66e;" horiz-adv-x="715" 
d="M-105 98q0 42 28.5 70t69.5 28h103q53 -2 102 0.5t90 14.5t72.5 36.5t51.5 66.5q20 43 11.5 122.5t-40.5 185.5q-11 32 -25.5 69.5t-28.5 69.5q-16 38 -33 75l178 88q0 -1 9.5 -20.5t23.5 -52.5t31 -76.5t32 -92.5q93 -287 23 -448q-71 -161 -252 -212
q-54 -16 -105.5 -19t-96.5 -3h-137h-9q-41 0 -69.5 28t-28.5 70z" />
    <glyph glyph-name="uni066E.medi" unicode="&#x66e;" horiz-adv-x="705" 
d="M-94 98q0 41 28 69.5t70 28.5h17q168 0 244 60.5t76 179.5q0 28 -2 56.5t-6.5 59t-12 64t-18.5 71.5l188 53q10 -35 17 -67.5t12.5 -68.5t9.5 -78t8 -95q3 -37 10 -78t25 -76t49.5 -58t82.5 -23q20 0 38 -7.5t31.5 -21t21.5 -31.5t8 -38q0 -21 -8 -38.5t-21.5 -31
t-31 -21t-37.5 -7.5q-50 0 -91.5 9t-75 25.5t-60 39.5t-47.5 50q-63 -62 -163.5 -93t-246.5 -31h-17q-42 0 -70 28t-28 70z" />
    <glyph glyph-name="uni066E.fina" unicode="&#x66e;" horiz-adv-x="2316" 
d="M1923 164q-39 46 -62 109q-264 -276 -833 -276q-304 2 -503.5 72.5t-289.5 222.5q-29 49 -44.5 101t-20 103.5t0 101.5t16.5 95q12 47 24.5 85t23.5 65.5t19 43.5t10 19l173 -95q0 -1 -9 -20t-20 -50t-21.5 -72t-13 -86t5.5 -92t33 -89q60 -102 215.5 -153.5t400.5 -52.5
q221 0 376 38.5t258 122.5q46 36 79.5 79t57 89t39.5 93t29 92l190 -52q-5 -20 -11 -44.5t-12 -53.5q-12 -59 -11 -100q2 -43 13 -90t42 -84q71 -89 238 -89q42 0 70.5 -28.5t28.5 -70.5t-28.5 -70t-70.5 -28h-8q-260 3 -385 164z" />
    <glyph glyph-name="uni066F.init" unicode="&#x66f;" horiz-adv-x="932" 
d="M428 927q-14 0 -33 -13.5t-37.5 -40.5t-34.5 -66t-24 -90q-14 -75 17 -112q20 -24 58.5 -39t92.5 -18q51 -2 95.5 -2t77.5 2q-7 97 -37.5 183.5t-81.5 142.5q-16 18 -40.5 35.5t-52.5 17.5zM-101 98q0 42 29 70t71 28q111 0 204.5 10.5t167 27t124.5 37t75 39.5
q13 11 21 20l16 18h-101q-54 0 -105 8.5t-96 25.5t-82 42.5t-63 58.5q-14 18 -28 43.5t-23 59t-11 75t6 91.5q14 77 41 140.5t66 113.5q45 59 101 89t116 30q132 0 240 -117q46 -51 81.5 -118t57.5 -143.5t30 -158.5t-1 -162h-1q-6 -40 -17 -81q-3 -12 -9 -32.5t-20 -46
t-37.5 -54t-59.5 -56.5q-48 -38 -121.5 -67t-162.5 -48.5t-190 -29.5t-204 -11h-17q-41 0 -69.5 28.5t-28.5 69.5z" />
    <glyph glyph-name="uni066F.medi" unicode="&#x66f;" horiz-adv-x="1001" 
d="M481 741q-27 0 -58.5 -19.5t-58.5 -55t-44.5 -85.5t-17.5 -112q0 -47 44.5 -92.5t127.5 -83.5l16 -7q59 26 90 70.5t41 95t2 102t-28.5 93t-50.5 68t-63 26.5zM-152 98q0 21 7.5 39t21 31t31 20.5t38.5 7.5q35 0 75.5 1t79.5 3t74.5 5t60.5 6q-130 114 -130 258
q0 93 28.5 177t82.5 152t123.5 105.5t142.5 34.5q89 -4 156 -42t111.5 -98t65.5 -135.5t17.5 -154t-32 -154t-82.5 -134.5q30 -6 66 -10.5t74 -7.5t76 -4.5t71 -1.5q42 0 70.5 -28t28.5 -70q0 -21 -7.5 -38.5t-21 -31t-31.5 -21t-39 -7.5h-9q-31 0 -67 1t-73 3.5t-72 5.5
t-64 8q-60 10 -115.5 23t-108.5 30q-47 -18 -109 -31t-133 -22t-148 -13.5t-153 -4.5h-8q-42 0 -70 28t-28 70z" />
    <glyph glyph-name="uni066F.fina" unicode="&#x66f;" horiz-adv-x="1570" 
d="M1022 648q-36 0 -78 -53q-29 -35 -47.5 -83t-29.5 -107q-15 -92 21 -136q15 -20 37.5 -32.5t47.5 -20t49.5 -11t42.5 -5.5q63 -3 114.5 -4t93.5 0q-3 64 -15 121.5t-31 107t-42.5 90t-49.5 70.5q-20 21 -49 42t-64 21zM1232 -3q-38 0 -83 1.5t-96 4.5q-109 8 -189.5 44
t-131.5 99q-91 119 -60 292q14 84 43.5 154.5t72.5 124.5q50 63 109 96t125 33q143 0 260 -129q43 -47 76.5 -105.5t57.5 -125.5t37.5 -140t16.5 -149q20 -1 45 -1h56q41 0 70 -28t29 -70q0 -20 -8 -38t-21.5 -31.5t-31.5 -21t-38 -7.5h-9h-105q-8 -51 -28.5 -122.5
t-59.5 -148.5q-81 -157 -214 -251q-167 -115 -398 -115q-197 0 -348 77q-155 77 -241 221q-51 85 -73 186t-14 215q8 116 46.5 237t107.5 251l175 -93q-111 -208 -129.5 -386.5t56.5 -306.5q60 -99 167 -150.5t253 -51.5q301 0 433 252q26 50 42 97.5t24 85.5h-24z" />
    <glyph glyph-name="uniFBA8" unicode="&#x6c1;" horiz-adv-x="728" arabic-form="initial" 
d="M470 -441q-57 6 -89 43.5t-32 88.5q0 85 40 175t118 193l73 -45q-86 -119 -86 -215q0 -37 25.5 -60.5t85.5 -41.5q-14 -28 -33 -53t-38.5 -44t-36.5 -30t-27 -11zM-98 98q0 42 28.5 70t69.5 28h58q53 -2 102 0.5t90 14.5t72.5 36.5t51.5 66.5q20 43 11.5 122.5
t-40.5 185.5q-11 32 -25.5 69.5t-28.5 69.5q-16 38 -33 75l178 88q0 -1 9.5 -20.5t23.5 -52.5t31 -76.5t32 -92.5q93 -287 23 -448q-71 -161 -252 -212q-54 -16 -105.5 -19t-96.5 -3h-92h-9q-41 0 -69.5 28t-28.5 70z" />
    <glyph glyph-name="uniFBA9" unicode="&#x6c1;" horiz-adv-x="1011" arabic-form="medial" 
d="M361 285q-68 -349 113 -555q15 82 44.5 164t79.5 152q41 58 107.5 94.5t155.5 49.5q26 4 49 5t42 1h59h4q41 0 69.5 -28.5t28.5 -69.5t-28.5 -69.5t-69.5 -28.5h-4h-58q-23 0 -50.5 -2.5t-55.5 -9.5t-52 -20t-39 -34q-30 -43 -50 -94.5t-32 -104.5t-17 -104t-4 -93
l-149 -84q-171 107 -261 268q-38 69 -60.5 143.5t-30.5 157.5q-35 -11 -75.5 -17t-88.5 -6v196q48 0 81 6.5t50 20.5q11 9 18.5 25t16.5 40q5 14 11 29.5t15 31.5zM841 -547q-57 6 -88.5 44t-31.5 87q0 44 9.5 85.5t28 83.5t46 85.5t63.5 91.5l74 -45q-76 -103 -76 -192
q0 -37 25.5 -60.5t85.5 -42.5q-12 -29 -31.5 -53.5t-40 -43t-38 -29t-26.5 -11.5z" />
    <glyph glyph-name="uni06BE" unicode="&#x6be;" horiz-adv-x="1520" arabic-form="isolated" 
d="M882 202q26 -3 49.5 -5t45.5 -2q81 0 142 32t92 90q26 51 20.5 106.5t-42.5 107.5q-56 83 -199 171q9 -32 14 -69.5t5 -80.5q0 -56 -7.5 -104t-24.5 -94q-32 -84 -95 -152zM671 756q-23 0 -56.5 -15t-65.5 -52q-10 -12 -22 -29.5t-21.5 -41.5t-14.5 -54.5t-1 -66.5
q10 -76 54.5 -129.5t107.5 -90.5q20 10 35.5 20t29.5 21q50 42 72.5 97.5t22.5 136.5q0 71 -17.5 112t-40.5 61.5t-47 25.5t-36 5zM68 176q0 21 12 38.5t30.5 29.5t40 16.5t40.5 -1.5q39 -12 80 -21.5t74 -15.5t54 -8.5t20 -1.5q-11 11 -19.5 20t-14.5 19q-39 50 -61 105
t-30 117q-13 97 15 186.5t93 161.5q52 60 119 93q-47 19 -55 19l58 189q3 0 30 -8.5t72 -25t104 -40t125 -52.5q368 -167 496 -352q34 -49 53.5 -101.5t24 -106.5t-6 -107t-36.5 -103q-57 -106 -162 -166q-54 -32 -116.5 -47.5t-130.5 -15.5q-85 0 -169.5 16t-160.5 49
q-50 -25 -108 -33.5t-121 -4.5t-129.5 17t-132.5 31q-46 15 -67 39t-21 65z" />
    <glyph glyph-name="uni06D2" unicode="&#x6d2;" horiz-adv-x="2130" arabic-form="isolated" 
d="M962 -214q-74 0 -142 2.5t-129 7.5q-103 9 -191 26t-157 41q-177 59 -220 165q-6 14 -11 35.5t-2.5 47.5t14 56t38.5 62q72 88 253 140q42 12 84.5 21.5t80.5 16t70 10.5t55 6q100 10 169.5 15.5t113.5 8t64 3t22 0.5v-201l-19 -0.5t-60.5 -3t-108 -7.5t-161.5 -15
q-83 -8 -152 -22t-121.5 -30.5t-87.5 -35t-48 -34.5l-2 -2q10 -8 34.5 -22t69.5 -28q57 -19 130.5 -32t160.5 -21q83 -7 182.5 -8.5t206.5 1t216 8.5t210 13t189.5 15t155 14t105 10.5t40.5 4.5l23 -199q-8 -1 -58 -6.5t-131 -13t-186 -16t-222 -16t-239.5 -12.5t-238.5 -5z
" />
    <glyph glyph-name="uniFBAF" unicode="&#x6d2;" horiz-adv-x="1429" arabic-form="final" 
d="M893 -476q-86 0 -176.5 4t-180.5 15q-78 9 -144 25t-120 39q-133 56 -177 148q-24 51 -19.5 104.5t37.5 105.5q58 93 203 148q34 13 67.5 22.5t63.5 16t55 11t43 6.5q76 10 146.5 15.5t125.5 8t89.5 3t37.5 0.5h485q41 0 69.5 -28.5t28.5 -69.5t-28.5 -69.5t-69.5 -28.5
h-485q-1 0 -33 -1t-84.5 -4.5t-119 -9.5t-135.5 -15q-25 -3 -53 -8t-55.5 -10.5t-53 -12.5t-45.5 -14q-56 -22 -78.5 -41t-27.5 -26t-6 -10.5t-1 -4.5t3 -6t10 -12.5t19.5 -16.5t32.5 -18q21 -9 48.5 -17.5t59.5 -15t66.5 -12t67.5 -9.5q83 -9 172.5 -13t175 -4t162.5 3
t135 6.5t92.5 6t35.5 2.5l20 -194q-4 0 -44.5 -3t-104.5 -6.5t-145 -6.5t-165 -3z" />
    <glyph glyph-name="uni06A9" unicode="&#x6a9;" horiz-adv-x="2138" arabic-form="isolated" 
d="M2136 1460l-762 -319q79 -67 159 -135.5t148 -139.5t118 -146t71 -153.5t6 -161.5t-77 -172q-6 -8 -18.5 -22.5t-34 -32.5t-53 -38.5t-74.5 -41.5q-76 -35 -155 -55t-160 -29.5t-163.5 -11.5t-164.5 1q-180 2 -323 21.5t-252 59.5q-206 81 -280 230q-42 80 -42 174.5
t39 199.5q29 72 57 116.5t33 52.5l158 -117l-23 -37q-9 -17 -20.5 -39t-21.5 -50q-45 -130 -4 -210q50 -99 225 -150.5t457 -52.5q105 -5 189.5 0t150 15.5t114 24.5t81.5 28q62 26 88.5 47t31.5 26l3 3l4 7q35 41 40.5 86.5t-10 93t-49 96.5t-77.5 97t-95 94t-101 88.5
t-95.5 79.5t-79.5 67l25 229l860 359z" />
    <glyph glyph-name="uniFB8F" unicode="&#x6a9;" horiz-adv-x="2321" arabic-form="final" 
d="M2320 196q42 0 70 -28t28 -70q0 -41 -28 -69.5t-70 -28.5q-166 0 -302.5 63t-225.5 187q-16 -27 -38 -50t-47.5 -42t-53 -35t-55.5 -29q-209 -94 -549 -94h-92q-107 0 -201 9q-75 5 -145.5 16t-139.5 30q-12 3 -35 10.5t-47 16.5t-45 17t-29 12q-61 31 -106 69
q-32 25 -58.5 58t-49.5 75q-1 1 -1 4q-17 36 -28 78t-13 89t7 98t32 104q31 71 58 116.5t32 53.5l158 -118q-16 -25 -28 -49q-11 -20 -21 -41.5t-15 -35.5q-46 -127 -4 -210q38 -77 154.5 -126t302.5 -68q68 -5 127.5 -7t103.5 -2q102 -4 184.5 1t147.5 15t113.5 23.5
t81.5 26.5q87 33 129 79t48.5 99.5t-16.5 112t-64.5 118.5t-96.5 118t-112 110t-111 96t-94 75l22 206l897 386l75 -182l-792 -334q84 -59 159.5 -126t137.5 -140t108 -149.5t72 -152.5q16 -48 36 -97t49 -95t71 -86t103 -69q79 -37 198 -38h8z" />
    <glyph glyph-name="uni06AF" unicode="&#x6af;" horiz-adv-x="2138" arabic-form="isolated" 
d="M2136 1458l-762 -319q79 -67 159 -135.5t148 -139.5t118 -146t71 -153.5t6 -161.5t-77 -172q-6 -8 -18.5 -22.5t-34 -32.5t-53 -38.5t-74.5 -41.5q-76 -35 -155 -55t-160 -29.5t-163.5 -11.5t-164.5 1q-180 2 -323 21.5t-252 59.5q-206 81 -280 230q-42 80 -42 174.5
t39 199.5q29 72 57 116.5t33 52.5l158 -117l-23 -37q-9 -17 -20.5 -39t-21.5 -50q-45 -130 -4 -210q50 -99 225 -150.5t457 -52.5q105 -5 189.5 0t150 15.5t114 24.5t81.5 28q62 26 88.5 47t31.5 26l3 3l4 7q35 41 40.5 86.5t-10 93t-49 96.5t-77.5 97t-95 94t-101 88.5
t-95.5 79.5t-79.5 67l25 229l860 359zM1997 1767l-804 -340l7 128l750 313z" />
    <glyph glyph-name="uniFB94" unicode="&#x6af;" horiz-adv-x="1022" arabic-form="initial" 
d="M-104 97q0 42 30 70.5t78 28.5h105q60 0 125 1.5t124.5 12t108 33t76.5 64.5q33 50 38.5 109t-12.5 128q-11 41 -54.5 104.5t-107.5 136t-143 148.5t-161 142l23 205l822 352l77 -182l-716 -301q49 -42 107 -94t115 -115q76 -84 125 -160.5t76 -145.5t36 -130.5t4 -115.5
t-20.5 -100t-36.5 -84q-89 -158 -301 -197q-38 -7 -87 -7h-323q-48 0 -78 28t-30 69zM914 1760l-804 -340l7 128l750 313z" />
    <glyph glyph-name="uniFB95" unicode="&#x6af;" horiz-adv-x="1187" arabic-form="medial" 
d="M-98 98q0 20 8 38t21.5 31.5t31.5 21t38 7.5h9h330q40 0 80.5 16t73 43t54 61.5t24.5 70.5q5 57 -14.5 119.5t-55.5 126.5t-84 127t-100.5 119.5t-105.5 104t-98 82.5l26 221l884 381l77 -182l-793 -333q76 -61 133.5 -122.5t103.5 -123.5t82.5 -124t70 -124t66.5 -125
t71 -127q29 -48 62 -86.5t71.5 -65.5t85 -42.5t102.5 -16.5h42q42 0 70 -28.5t28 -69.5q0 -42 -28 -70t-70 -28h-8q-72 0 -126.5 9t-106.5 26q-71 26 -131 76t-105 108q-35 -64 -86 -112q-33 -29 -69.5 -49t-76 -32t-80.5 -18t-82 -8h-326q-41 0 -70 28t-29 70zM954 1789
l-804 -340l7 128l750 313z" />
    <glyph glyph-name="uniFB93" unicode="&#x6af;" horiz-adv-x="2309" arabic-form="final" 
d="M2320 196q42 0 70 -28t28 -70q0 -41 -28 -69.5t-70 -28.5q-166 0 -302.5 63t-225.5 187q-16 -27 -38 -50t-47.5 -42t-53 -35t-55.5 -29q-209 -94 -549 -94h-92q-107 0 -201 9q-75 5 -145.5 16t-139.5 30q-12 3 -35 10.5t-47 16.5t-45 17t-29 12q-61 31 -106 69
q-32 25 -58.5 58t-49.5 75q-1 1 -1 4q-17 36 -28 78t-13 89t7 98t32 104q31 71 58 116.5t32 53.5l158 -118q-16 -25 -28 -49q-11 -20 -21 -41.5t-15 -35.5q-46 -127 -4 -210q38 -77 154.5 -126t302.5 -68q68 -5 127.5 -7t103.5 -2q102 -4 184.5 1t147.5 15t113.5 23.5
t81.5 26.5q87 33 129 79t48.5 99.5t-16.5 112t-64.5 118.5t-96.5 118t-112 110t-111 96t-94 75l22 206l897 386l75 -182l-792 -334q84 -59 159.5 -126t137.5 -140t108 -149.5t72 -152.5q16 -48 36 -97t49 -95t71 -86t103 -69q79 -37 198 -38h8zM2047 1794l-873 -380l7 128
l819 353z" />
    <glyph glyph-name="uni06BA" unicode="&#x6ba;" horiz-adv-x="1630" arabic-form="isolated" 
d="M741 -688q-265 0 -433 150q-79 69 -127.5 162t-64.5 204q-10 61 -9 122.5t8 118.5t19 107.5t24 90.5q31 102 67.5 174.5t60.5 107.5l159 -117q-13 -18 -30 -51.5t-34.5 -78t-33.5 -98.5t-26.5 -112.5t-13.5 -118.5t5 -117q4 -26 16 -61t34.5 -72t57 -73.5t84 -66t115 -49
t151.5 -23.5q5 0 4 -0.5t-3 -0.5h-3t4 1q212 9 342 84t176 214q26 86 27.5 173t-12 167t-37 149.5t-46.5 121t-40 81t-18 29.5l166 106q3 -5 25 -42t50 -99.5t56 -146t43 -180.5t11.5 -204t-38.5 -215q-29 -94 -86 -169.5t-141 -130.5q-91 -63 -208 -96t-262 -40
q-10 0 -20 -0.5t-19 -0.5z" />
    <glyph glyph-name="uniFB9F" unicode="&#x6ba;" horiz-adv-x="1709" arabic-form="final" 
d="M1707 0q-133 0 -239 62q4 -76 -4.5 -154.5t-33.5 -159.5q-29 -92 -86 -168.5t-141 -130.5q-92 -63 -208 -95.5t-261 -40.5h-41q-131 0 -239 38t-193 110q-77 69 -126.5 163t-65.5 204q-8 61 -7.5 122t7.5 118t18 108t24 92q32 102 67 173.5t60 107.5l160 -116
q-13 -17 -30.5 -51t-35 -79t-33.5 -98.5t-26.5 -112t-13.5 -119t6 -117.5q4 -26 14 -62t29 -74.5t49.5 -76.5t76.5 -67.5t109.5 -48t148.5 -18.5h15h9.5t9.5 1q211 11 341 85.5t174 212.5q27 87 28.5 173t-11.5 164.5t-36 146.5t-46 121q-11 20 -20 41t-20 43q-8 16 -14 24
t-6 10l167 106q3 -4 22.5 -40t48.5 -96q55 -104 103.5 -165t92.5 -92t83 -39.5t74 -8.5q42 0 70.5 -28t28.5 -70q0 -41 -28.5 -69.5t-70.5 -28.5z" />
    <glyph glyph-name="uniFEAA" unicode="&#x62f;" horiz-adv-x="1262" arabic-form="final" 
d="M531 0q-117 0 -218.5 49t-185.5 136l113 159q60 -56 121 -89t120.5 -46t117 -7.5t111.5 26.5q51 20 83.5 43.5t49.5 40.5l-316 760l182 76q32 -78 77 -187q38 -94 95 -231.5t134 -320.5q20 -48 35.5 -87.5t39.5 -67t64 -43t108 -15.5q41 0 70 -28t29 -70t-29 -70t-70 -28
q-65 0 -115.5 10.5t-89 28.5t-67.5 42.5t-50 51.5q-30 -22 -68.5 -46t-88.5 -44q-56 -22 -116 -32.5t-136 -10.5z" />
    <glyph glyph-name="uni06C1" unicode="&#x6c1;" horiz-adv-x="1350" arabic-form="final" 
d="M1347 196q41 0 69.5 -28.5t28.5 -69.5t-28.5 -69.5t-69.5 -28.5h-9q-74 1 -133.5 25t-110.5 62t-95.5 86.5t-87.5 98.5q-33 38 -66 74.5t-67.5 65t-72 45.5t-79.5 17q-36 0 -78 -13q-50 -17 -89.5 -55.5t-71.5 -92.5t-57 -120.5t-44 -138.5l-190 50q25 94 59 181.5
t81 160t109.5 125t144.5 78.5q36 11 70 16t66 5q72 0 133 -24t113.5 -62t98.5 -86.5t88 -97.5q32 -37 66 -73.5t69.5 -65.5t73.5 -47t79 -18z" />
    <glyph glyph-name="uni0686" unicode="&#x686;" horiz-adv-x="1702" arabic-form="isolated" 
d="M913 -587q142 0 269 42t250 130l114 -161q-148 -102 -315 -158.5t-356 -56.5q-154 0 -288 42t-233.5 122t-157 197t-57.5 266v21.5t1 22.5q6 105 51.5 199t121.5 174t177.5 144t220 109t249.5 68.5t265 23.5q-63 28 -122.5 64.5t-110.5 62.5q-45 23 -82.5 44.5t-75 39
t-78.5 28.5t-93 12q-41 0 -84 -17.5t-83.5 -46t-75 -64t-58.5 -72.5q-47 30 -83 53.5t-79 51.5q36 60 82 111t103 89.5t126.5 62t152.5 29.5q117 -2 227.5 -42.5t215.5 -109.5q79 -52 144.5 -91.5t124 -68t112.5 -48t110 -31.5q-9 -34 -17 -62.5t-16 -56t-16 -55.5t-17 -61
q-41 0 -65.5 1t-50.5 2q-109 2 -230 -14.5t-238.5 -49.5t-225 -82t-191 -112t-135.5 -139.5t-59 -164.5q-2 -115 46 -199t128 -139.5t184.5 -82.5t217.5 -27zM1149.27 143.316l155.801 -155.82l-157.725 -157.744l-155.8 155.82zM728.992 142.354l155.801 -156.782
l-157.725 -157.744l-155.8 156.782zM942.496 -161.592l142.336 -142.354l-143.298 -143.316l-142.336 142.354z" />
    <glyph glyph-name="uniFB7B" unicode="&#x686;" horiz-adv-x="1738" arabic-form="final" 
d="M1090.5 92.5947l151.381 -151.519l-153.25 -153.39l-151.38 151.519zM682.147 91.6602l151.38 -152.455l-153.249 -153.39l-151.381 152.454zM889.595 -203.896l138.298 -138.424l-139.232 -139.36l-138.298 138.425zM944 -791q-142 0 -270 40.5t-228.5 113.5t-167 173
t-86.5 218.5t13 251.5t133 272q120 140 300 224q123 57 254 89t257 47l-108 52q-105 53 -192 91.5t-145 46.5q-139 19 -251 -99q-33 -36 -53.5 -69t-29.5 -51l-5 -12l-184 76q2 4 10.5 22t24.5 44.5t39 58.5t54 65q88 97 194.5 137t226.5 24q84 -11 180.5 -53.5
t217.5 -102.5q109 -54 232 -111t268 -105l-38 -192q-2 0 -18.5 0.5t-46 1t-70 -0.5t-89.5 -4q-2 -11 -2.5 -30.5t2.5 -42.5t12 -48t27 -47q24 -29 54.5 -47t70 -28.5t89.5 -14t113 -3.5q20 0 38 -8t31.5 -21.5t21.5 -31.5t8 -39q0 -41 -29 -68.5t-70 -27.5
q-92 0 -166.5 10.5t-133.5 31.5t-104.5 52.5t-79.5 74.5q-36 48 -57 106.5t-24 125.5q-3 21 0 38q-112 -14 -227 -41t-220 -75q-24 -11 -56.5 -30t-68.5 -45.5t-71.5 -61t-65.5 -78t-50.5 -96t-25.5 -115.5q-8 -128 43 -225t141 -160.5t206 -92.5t238 -22t237 51.5
t203 128.5l129 -152q-71 -63 -149 -104.5t-159.5 -66t-164 -35t-162.5 -10.5z" />
    <glyph glyph-name="uni0623" unicode="&#x623;" horiz-adv-x="525" arabic-form="isolated" 
d="M366 1447q34 -399 40 -720q11 -530 -16 -727l-197 11q28 311 20 614q-14 524 -43 792zM337 1945q-12 3 -27 6q-13 2 -29.5 4.5t-35.5 2.5q-15 0 -30.5 -2.5t-31.5 -9.5v2q-32 -14 -51.5 -42.5t-19.5 -61.5q0 -17 8 -36l-1 1q14 -35 49.5 -58.5t78.5 -23.5q11 0 21 1t21 6
q26 8 51 21t45 25q23 14 43 29l59 -78q-39 -29 -98 -62t-144 -80l-227 -126l-48 87l179 100q-41 17 -72.5 49t-48.5 71q-14 34 -14 74q0 31 9.5 60.5t27 55t42 45.5t54.5 32q47 19 98 19q23 0 44 -3t38 -7q19 -4 38 -9z" />
    <glyph glyph-name="uniFE84" unicode="&#x623;" horiz-adv-x="673" arabic-form="final" 
d="M665 0q-110 0 -188.5 26t-132.5 80q-33 33 -50.5 71t-26 75t-9.5 70.5t-1 57.5v19q0 1 1 36.5t1.5 91t0.5 124.5t-1 157q0 86 -2 169t-6 160t-11 150.5t-16 120.5l196 36q9 -51 16 -125t11.5 -151t6.5 -161.5t2 -174.5q1 -88 1 -159v-129t-0.5 -99t-0.5 -49v-18
q-1 -44 3 -77.5t27 -55.5q22 -23 64.5 -35.5t105.5 -13.5h9q20 0 38 -7.5t31.5 -21t21.5 -31.5t8 -38q0 -42 -29 -70t-70 -28zM381 1941q-12 3 -27 6q-13 2 -29.5 4.5t-35.5 2.5q-15 0 -30.5 -2.5t-31.5 -9.5v2q-32 -14 -51.5 -42.5t-19.5 -61.5q0 -17 8 -36l-1 1
q14 -35 49.5 -58.5t78.5 -23.5q11 0 21 1t21 6q26 8 51 21t45 25q23 14 43 29l59 -78q-39 -29 -98 -62t-144 -80l-227 -126l-48 87l179 100q-41 17 -72.5 49t-48.5 71q-14 34 -14 74q0 31 9.5 60.5t27 55t42 45.5t54.5 32q47 19 98 19q23 0 44 -3t38 -7q19 -4 38 -9z" />
    <glyph glyph-name="uni0625" unicode="&#x625;" horiz-adv-x="525" arabic-form="isolated" 
d="M346 1447q34 -399 40 -720q11 -530 -16 -727l-197 11q28 311 20 614q-14 524 -43 792zM415 -186q-12 3 -27 6q-13 2 -29.5 4.5t-35.5 2.5q-15 0 -30.5 -2.5t-31.5 -9.5v2q-32 -14 -51.5 -42.5t-19.5 -61.5q0 -17 8 -36l-1 1q14 -35 49.5 -58.5t78.5 -23.5q11 0 21 1t21 6
q26 8 51 21t45 25q23 14 43 29l59 -78q-39 -29 -98 -62t-144 -80l-227 -126l-48 87l179 100q-41 17 -72.5 49t-48.5 71q-14 34 -14 74q0 31 9.5 60.5t27 55t42 45.5t54.5 32q47 19 98 19q23 0 44 -3t38 -7q19 -4 38 -9z" />
    <glyph glyph-name="uniFE88" unicode="&#x625;" horiz-adv-x="620" arabic-form="final" 
d="M611 0q-110 0 -188.5 26t-132.5 80q-33 33 -50.5 71t-26 75t-9.5 70.5t-1 57.5v19q0 1 1 36.5t1.5 91t0.5 124.5t-1 157q0 86 -2 169t-6 160t-11 150.5t-16 120.5l196 36q9 -51 16 -125t11.5 -151t6.5 -161.5t2 -174.5q1 -88 1 -159v-129t-0.5 -99t-0.5 -49v-18
q-1 -44 3 -77.5t27 -55.5q22 -23 64.5 -35.5t105.5 -13.5h9q20 0 38 -7.5t31.5 -21t21.5 -31.5t8 -38q0 -42 -29 -70t-70 -28zM470 -164q-12 3 -27 6q-13 2 -29.5 4.5t-35.5 2.5q-15 0 -30.5 -2.5t-31.5 -9.5v2q-32 -14 -51.5 -42.5t-19.5 -61.5q0 -17 8 -36l-1 1
q14 -35 49.5 -58.5t78.5 -23.5q11 0 21 1t21 6q26 8 51 21t45 25q23 14 43 29l59 -78q-39 -29 -98 -62t-144 -80l-227 -126l-48 87l179 100q-41 17 -72.5 49t-48.5 71q-14 34 -14 74q0 31 9.5 60.5t27 55t42 45.5t54.5 32q47 19 98 19q23 0 44 -3t38 -7q19 -4 38 -9z" />
    <glyph glyph-name="uni0622" unicode="&#x622;" horiz-adv-x="707" arabic-form="isolated" 
d="M439 1447q34 -399 40 -720q11 -530 -16 -727l-197 11q28 311 20 614q-14 524 -43 792zM-46 1525q1 2 5 13.5t10.5 27t14 33t15.5 31.5q32 51 74 81.5t87 38.5q10 2 22 2.5t21 0.5q44 0 79.5 -11t66.5 -24q27 -11 53.5 -19t57.5 -9q24 -1 47 11t42 28t33 32t20 24l114 -74
q-1 -2 -10 -15t-25.5 -31.5t-39.5 -39t-51.5 -37.5t-62.5 -28t-72 -10q-40 1 -75 11t-65 21l-16 6q-32 12 -59 20t-58 3q-18 -2 -34 -17.5t-28.5 -36t-21 -41t-12.5 -32.5z" />
    <glyph glyph-name="uniFE82" unicode="&#x622;" horiz-adv-x="684" arabic-form="final" 
d="M665 0q-110 0 -188.5 26t-132.5 80q-33 33 -50.5 71t-26 75t-9.5 70.5t-1 57.5v19q0 1 1 36.5t1.5 91t0.5 124.5t-1 157q0 86 -2 169t-6 160t-11 150.5t-16 120.5l196 36q9 -51 16 -125t11.5 -151t6.5 -161.5t2 -174.5q1 -88 1 -159v-129t-0.5 -99t-0.5 -49v-18
q-1 -44 3 -77.5t27 -55.5q22 -23 64.5 -35.5t105.5 -13.5h9q20 0 38 -7.5t31.5 -21t21.5 -31.5t8 -38q0 -42 -29 -70t-70 -28zM-84 1482q1 2 5 13.5t10.5 27t14 33t15.5 31.5q32 51 74 81.5t87 38.5q10 2 22 2.5t21 0.5q44 0 79.5 -11t66.5 -24q27 -11 53.5 -19t57.5 -9
q24 -1 47 11t42 28t33 32t20 24l114 -74q-1 -2 -10 -15t-25.5 -31.5t-39.5 -39t-51.5 -37.5t-62.5 -28t-72 -10q-40 1 -75 11t-65 21l-16 6q-32 12 -59 20t-58 3q-18 -2 -34 -17.5t-28.5 -36t-21 -41t-12.5 -32.5z" />
    <glyph glyph-name="uni0671" unicode="&#x671;" horiz-adv-x="573" arabic-form="isolated" 
d="M362 1447q34 -399 40 -720q11 -530 -16 -727l-197 11q28 311 20 614q-14 524 -43 792zM441 1668q16 16 20 36q4 22 -10 41q-19 24 -56 24q-17 0 -36 -5q-50 -15 -92 -60q-31 -33 -55 -79q35 -3 65 -3q107 0 158 41q2 2 6 5zM543 1757q16 -44 -3 -93q-17 -44 -55 -72
q-39 -29 -99 -43q-41 -9 -97 -12l-22 -1h-25q-40 0 -69 5q-43 8 -72 27q-6 5 -13 10l-10 11q-20 20 -35 20h-7q-23 -3 -49 -15q-19 -9 -41 -24l-13 -8l-20 79q-3 11 7 18q4 3 10 5l5 2l4 1l3 1l2 1q57 24 99 24q52 0 88 -35q32 58 67 98q48 55 106 80q44 19 90 19
q107 0 146 -90l1 -3z" />
    <glyph glyph-name="uniFB51" unicode="&#x671;" horiz-adv-x="678" arabic-form="final" 
d="M665 0q-110 0 -188.5 26t-132.5 80q-33 33 -50.5 71t-26 75t-9.5 70.5t-1 57.5v19q0 1 1 36.5t1.5 91t0.5 124.5t-1 157q0 86 -2 169t-6 160t-11 150.5t-16 120.5l196 36q9 -51 16 -125t11.5 -151t6.5 -161.5t2 -174.5q1 -88 1 -159v-129t-0.5 -99t-0.5 -49v-18
q-1 -44 3 -77.5t27 -55.5q22 -23 64.5 -35.5t105.5 -13.5h9q20 0 38 -7.5t31.5 -21t21.5 -31.5t8 -38q0 -42 -29 -70t-70 -28zM500 1674q16 16 20 36q4 22 -10 41q-19 24 -56 24q-17 0 -36 -5q-50 -15 -92 -60q-31 -33 -55 -79q35 -3 65 -3q107 0 158 41q2 2 6 5zM602 1763
q16 -44 -3 -93q-17 -44 -55 -72q-39 -29 -99 -43q-41 -9 -97 -12l-22 -1h-25q-40 0 -69 5q-43 8 -72 27q-6 5 -13 10l-10 11q-20 20 -35 20h-7q-23 -3 -49 -15q-19 -9 -41 -24l-13 -8l-20 79q-3 11 7 18q4 3 10 5l5 2l4 1l3 1l2 1q57 24 99 24q52 0 88 -35q32 58 67 98
q48 55 106 80q44 19 90 19q107 0 146 -90l1 -3z" />
    <glyph glyph-name="uni0628" unicode="&#x628;" horiz-adv-x="2013" arabic-form="isolated" 
d="M998 0q-359 3 -575 83q-206 80 -280 229q-42 81 -42 176t39 198q14 36 29 66t27.5 52t21.5 35.5l11 16.5l159 -118q-6 -8 -12 -17t-11 -19q-10 -17 -21 -39.5t-21 -50.5q-46 -127 -4 -210q49 -98 224 -150.5t455 -53.5q80 0 175 6.5t193.5 23.5t196 46.5t181.5 76.5
q-4 45 -19 94.5t-36 97.5t-44 91.5t-43 77t-33 54t-14 21.5l166 108q1 -2 13 -20t29 -48t38.5 -70t42.5 -86.5t39 -97.5t30 -102t15.5 -91t-6 -73.5t-35 -63t-72.5 -59.5q-45 -28 -105 -52.5t-129.5 -45.5t-144.5 -37t-151 -27.5t-149 -17t-138 -4.5zM1174 -361l-163 -163
l-164 164l163 163z" />
    <glyph glyph-name="uniFE91" unicode="&#x628;" horiz-adv-x="722" arabic-form="initial" 
d="M-105 98q0 42 28.5 70t69.5 28h103q53 -2 102 0.5t90 14.5t72.5 36.5t51.5 66.5q20 43 11.5 122.5t-40.5 185.5q-11 32 -25.5 69.5t-28.5 69.5q-16 38 -33 75l178 88q0 -1 9.5 -20.5t23.5 -52.5t31 -76.5t32 -92.5q93 -287 23 -448q-71 -161 -252 -212
q-54 -16 -105.5 -19t-96.5 -3h-137h-9q-41 0 -69.5 28t-28.5 70zM457 -376l-163 -163l-164 164l163 163z" />
    <glyph glyph-name="uniFE92" unicode="&#x628;" horiz-adv-x="718" arabic-form="medial" 
d="M-94 98q0 41 28 69.5t70 28.5h17q168 0 244 60.5t76 179.5q0 28 -2 56.5t-6.5 59t-12 64t-18.5 71.5l188 53q10 -35 17 -67.5t12.5 -68.5t9.5 -78t8 -95q3 -37 10 -78t25 -76t49.5 -58t82.5 -23q20 0 38 -7.5t31.5 -21t21.5 -31.5t8 -38q0 -21 -8 -38.5t-21.5 -31
t-31 -21t-37.5 -7.5q-50 0 -91.5 9t-75 25.5t-60 39.5t-47.5 50q-63 -62 -163.5 -93t-246.5 -31h-17q-42 0 -70 28t-28 70zM552 -361l-163 -163l-164 164l163 163z" />
    <glyph glyph-name="uniFE90" unicode="&#x628;" horiz-adv-x="2245" arabic-form="final" 
d="M1843 164q-39 46 -62 109q-264 -276 -833 -276q-304 2 -503.5 72.5t-289.5 222.5q-29 49 -44.5 101t-20 103.5t0 101.5t16.5 95q12 47 24.5 85t23.5 65.5t19 43.5t10 19l173 -95q0 -1 -9 -20t-20 -50t-21.5 -72t-13 -86t5.5 -92t33 -89q60 -102 215.5 -153.5t400.5 -52.5
q221 0 376 38.5t258 122.5q46 36 79.5 79t57 89t39.5 93t29 92l190 -52q-5 -20 -11 -44.5t-12 -53.5q-12 -59 -11 -100q2 -43 13 -90t42 -84q71 -89 238 -89q42 0 70.5 -28.5t28.5 -70.5t-28.5 -70t-70.5 -28h-8q-260 3 -385 164zM1154 -362l-163 -163l-164 164l163 163z
" />
    <glyph glyph-name="uni067E" unicode="&#x67e;" horiz-adv-x="2019" arabic-form="isolated" 
d="M991 0q-359 3 -575 83q-206 80 -280 229q-42 81 -42 176t39 198q14 36 29 66t27.5 52t21.5 35.5l11 16.5l159 -118q-6 -8 -12 -17t-11 -19q-10 -17 -21 -39.5t-21 -50.5q-46 -127 -4 -210q49 -98 224 -150.5t455 -53.5q80 0 175 6.5t193.5 23.5t196 46.5t181.5 76.5
q-4 45 -19 94.5t-36 97.5t-44 91.5t-43 77t-33 54t-14 21.5l166 108q1 -2 13 -20t29 -48t38.5 -70t42.5 -86.5t39 -97.5t30 -102t15.5 -91t-6 -73.5t-35 -63t-72.5 -59.5q-45 -28 -105 -52.5t-129.5 -45.5t-144.5 -37t-151 -27.5t-149 -17t-138 -4.5zM1228 -146l162 -162
l-164 -164l-162 162zM791 -147l162 -163l-164 -164l-162 163zM1013 -463l148 -148l-149 -149l-148 148z" />
    <glyph glyph-name="uniFB57" unicode="&#x67e;" horiz-adv-x="2238" arabic-form="final" 
d="M1843 164q-39 46 -62 109q-264 -276 -833 -276q-304 2 -503.5 72.5t-289.5 222.5q-29 49 -44.5 101t-20 103.5t0 101.5t16.5 95q12 47 24.5 85t23.5 65.5t19 43.5t10 19l173 -95q0 -1 -9 -20t-20 -50t-21.5 -72t-13 -86t5.5 -92t33 -89q60 -102 215.5 -153.5t400.5 -52.5
q221 0 376 38.5t258 122.5q46 36 79.5 79t57 89t39.5 93t29 92l190 -52q-5 -20 -11 -44.5t-12 -53.5q-12 -59 -11 -100q2 -43 13 -90t42 -84q71 -89 238 -89q42 0 70.5 -28.5t28.5 -70.5t-28.5 -70t-70.5 -28h-8q-260 3 -385 164zM1238 -135l162 -162l-164 -164l-162 162z
M801 -136l162 -163l-164 -164l-162 163zM1023 -452l148 -148l-149 -149l-148 148z" />
    <glyph glyph-name="uniFB58" unicode="&#x67e;" horiz-adv-x="864" arabic-form="initial" 
d="M-98 98q0 42 28.5 70t69.5 28h111q35 -1 76 -0.5t83 4.5t82.5 11.5t74.5 21t60 33.5t39 48q20 43 11.5 122.5t-40.5 185.5q-11 32 -25.5 69.5t-28.5 69.5q-16 38 -33 75l178 88q0 -1 9.5 -20.5t23.5 -52.5t31 -76.5t32 -92.5q93 -287 23 -448q-71 -161 -252 -212
q-27 -8 -69 -12.5t-86 -6.5t-84 -2.5t-62 -0.5h-145h-9q-41 0 -69.5 28t-28.5 70zM592 -186l162 -162l-164 -164l-162 162zM155 -187l162 -163l-164 -164l-162 163zM377 -503l148 -148l-149 -149l-148 148z" />
    <glyph glyph-name="uniFB59" unicode="&#x67e;" horiz-adv-x="859" arabic-form="medial" 
d="M-105 98q0 42 28 70.5t70 28.5h76q84 0 161 10t135.5 37t92.5 73.5t31 119.5q-2 56 -9.5 116t-29.5 137l187 53q9 -35 17 -73.5t14 -78.5t10.5 -80.5t6.5 -79.5q2 -37 9 -78t25 -76t49.5 -58t82.5 -23q42 0 71 -28t29 -70q0 -21 -8 -38.5t-21.5 -31t-31 -21t-37.5 -7.5
q-101 0 -167 36.5t-108 91.5q-36 -35 -93 -59.5t-125.5 -39.5t-143.5 -22t-147 -7h-76q-42 0 -70 28t-28 70zM583 -140l162 -162l-164 -164l-162 162zM146 -141l162 -163l-164 -164l-162 163zM368 -457l148 -148l-149 -149l-148 148z" />
    <glyph glyph-name="uni062A" unicode="&#x62a;" horiz-adv-x="1997" arabic-form="isolated" 
d="M978 0q-359 3 -575 83q-206 80 -280 229q-42 81 -42 176t39 198q14 36 29 66t27.5 52t21.5 35.5l11 16.5l159 -118q-6 -8 -12 -17t-11 -19q-10 -17 -21 -39.5t-21 -50.5q-46 -127 -4 -210q49 -98 224 -150.5t455 -53.5q80 0 175 6.5t193.5 23.5t196 46.5t181.5 76.5
q-4 45 -19 94.5t-36 97.5t-44 91.5t-43 77t-33 54t-14 21.5l166 108q1 -2 13 -20t29 -48t38.5 -70t42.5 -86.5t39 -97.5t30 -102t15.5 -91t-6 -73.5t-35 -63t-72.5 -59.5q-45 -28 -105 -52.5t-129.5 -45.5t-144.5 -37t-151 -27.5t-149 -17t-138 -4.5zM964 989l-162 -162
l-164 163l162 163zM1374 988l-162 -163l-164 164l162 162z" />
    <glyph glyph-name="uniFE97" unicode="&#x62a;" horiz-adv-x="804" arabic-form="initial" 
d="M381 1246l-162 -162l-164 163l162 163zM791 1245l-162 -163l-164 164l162 162zM-135 98q0 42 28.5 70t69.5 28h111q35 -1 76 -0.5t83 4.5t82.5 11.5t74.5 21t60 33.5t39 48q20 43 11.5 122.5t-40.5 185.5q-11 32 -25.5 69.5t-28.5 69.5q-16 38 -33 75l178 88
q0 -1 9.5 -20.5t23.5 -52.5t31 -76.5t32 -92.5q93 -287 23 -448q-71 -161 -252 -212q-27 -8 -69 -12.5t-86 -6.5t-84 -2.5t-62 -0.5h-145h-9q-41 0 -69.5 28t-28.5 70z" />
    <glyph glyph-name="uniFE98" unicode="&#x62a;" horiz-adv-x="870" arabic-form="medial" 
d="M-105 98q0 42 28 70.5t70 28.5h76q84 0 161 10t135.5 37t92.5 73.5t31 119.5q-2 56 -9.5 116t-29.5 137l187 53q9 -35 17 -73.5t14 -78.5t10.5 -80.5t6.5 -79.5q2 -37 9 -78t25 -76t49.5 -58t82.5 -23q42 0 71 -28t29 -70q0 -21 -8 -38.5t-21.5 -31t-31 -21t-37.5 -7.5
q-101 0 -167 36.5t-108 91.5q-36 -35 -93 -59.5t-125.5 -39.5t-143.5 -22t-147 -7h-76q-42 0 -70 28t-28 70zM402 1088l-162 -162l-164 163l162 163zM812 1087l-162 -163l-164 164l162 162z" />
    <glyph glyph-name="uniFE96" unicode="&#x62a;" horiz-adv-x="2253" arabic-form="final" 
d="M1843 164q-39 46 -62 109q-264 -276 -833 -276q-304 2 -503.5 72.5t-289.5 222.5q-29 49 -44.5 101t-20 103.5t0 101.5t16.5 95q12 47 24.5 85t23.5 65.5t19 43.5t10 19l173 -95q0 -1 -9 -20t-20 -50t-21.5 -72t-13 -86t5.5 -92t33 -89q60 -102 215.5 -153.5t400.5 -52.5
q221 0 376 38.5t258 122.5q46 36 79.5 79t57 89t39.5 93t29 92l190 -52q-5 -20 -11 -44.5t-12 -53.5q-12 -59 -11 -100q2 -43 13 -90t42 -84q71 -89 238 -89q42 0 70.5 -28.5t28.5 -70.5t-28.5 -70t-70.5 -28h-8q-260 3 -385 164zM985 984l-162 -162l-164 163l162 163z
M1395 983l-162 -163l-164 164l162 162z" />
    <glyph glyph-name="uni062B" unicode="&#x62b;" horiz-adv-x="2008" arabic-form="isolated" 
d="M985 0q-359 3 -575 83q-206 80 -280 229q-42 81 -42 176t39 198q14 36 29 66t27.5 52t21.5 35.5l11 16.5l159 -118q-6 -8 -12 -17t-11 -19q-10 -17 -21 -39.5t-21 -50.5q-46 -127 -4 -210q49 -98 224 -150.5t455 -53.5q80 0 175 6.5t193.5 23.5t196 46.5t181.5 76.5
q-4 45 -19 94.5t-36 97.5t-44 91.5t-43 77t-33 54t-14 21.5l166 108q1 -2 13 -20t29 -48t38.5 -70t42.5 -86.5t39 -97.5t30 -102t15.5 -91t-6 -73.5t-35 -63t-72.5 -59.5q-45 -28 -105 -52.5t-129.5 -45.5t-144.5 -37t-151 -27.5t-149 -17t-138 -4.5zM1057 968l162 162
l164 -164l-162 -162zM618 969l162 163l164 -164l-162 -163zM859 1270l148 148l149 -149l-148 -148z" />
    <glyph glyph-name="uniFE9B" unicode="&#x62b;" horiz-adv-x="832" arabic-form="initial" 
d="M509 1242l162 162l164 -164l-162 -162zM70 1243l162 163l164 -164l-162 -163zM311 1544l148 148l149 -149l-148 -148zM-98 98q0 42 28.5 70t69.5 28h111q35 -1 76 -0.5t83 4.5t82.5 11.5t74.5 21t60 33.5t39 48q20 43 11.5 122.5t-40.5 185.5q-11 32 -25.5 69.5
t-28.5 69.5q-16 38 -33 75l178 88q0 -1 9.5 -20.5t23.5 -52.5t31 -76.5t32 -92.5q93 -287 23 -448q-71 -161 -252 -212q-27 -8 -69 -12.5t-86 -6.5t-84 -2.5t-62 -0.5h-145h-9q-41 0 -69.5 28t-28.5 70z" />
    <glyph glyph-name="uniFE9C" unicode="&#x62b;" horiz-adv-x="864" arabic-form="medial" 
d="M-105 98q0 42 28 70.5t70 28.5h76q84 0 161 10t135.5 37t92.5 73.5t31 119.5q-2 56 -9.5 116t-29.5 137l187 53q9 -35 17 -73.5t14 -78.5t10.5 -80.5t6.5 -79.5q2 -37 9 -78t25 -76t49.5 -58t82.5 -23q42 0 71 -28t29 -70q0 -21 -8 -38.5t-21.5 -31t-31 -21t-37.5 -7.5
q-101 0 -167 36.5t-108 91.5q-36 -35 -93 -59.5t-125.5 -39.5t-143.5 -22t-147 -7h-76q-42 0 -70 28t-28 70zM470 1092l162 162l164 -164l-162 -162zM31 1093l162 163l164 -164l-162 -163zM272 1394l148 148l149 -149l-148 -148z" />
    <glyph glyph-name="uniFE9A" unicode="&#x62b;" horiz-adv-x="2233" arabic-form="final" 
d="M1843 164q-39 46 -62 109q-264 -276 -833 -276q-304 2 -503.5 72.5t-289.5 222.5q-29 49 -44.5 101t-20 103.5t0 101.5t16.5 95q12 47 24.5 85t23.5 65.5t19 43.5t10 19l173 -95q0 -1 -9 -20t-20 -50t-21.5 -72t-13 -86t5.5 -92t33 -89q60 -102 215.5 -153.5t400.5 -52.5
q221 0 376 38.5t258 122.5q46 36 79.5 79t57 89t39.5 93t29 92l190 -52q-5 -20 -11 -44.5t-12 -53.5q-12 -59 -11 -100q2 -43 13 -90t42 -84q71 -89 238 -89q42 0 70.5 -28.5t28.5 -70.5t-28.5 -70t-70.5 -28h-8q-260 3 -385 164zM1067 968l162 162l164 -164l-162 -162z
M628 969l162 163l164 -164l-162 -163zM869 1270l148 148l149 -149l-148 -148z" />
    <glyph glyph-name="uni0679" unicode="&#x679;" horiz-adv-x="2019" arabic-form="isolated" 
d="M992 0q-359 3 -575 83q-206 80 -280 229q-42 81 -42 176t39 198q14 36 29 66t27.5 52t21.5 35.5l11 16.5l159 -118q-6 -8 -12 -17t-11 -19q-10 -17 -21 -39.5t-21 -50.5q-46 -127 -4 -210q49 -98 224 -150.5t455 -53.5q80 0 175 6.5t193.5 23.5t196 46.5t181.5 76.5
q-4 45 -19 94.5t-36 97.5t-44 91.5t-43 77t-33 54t-14 21.5l166 108q1 -2 13 -20t29 -48t38.5 -70t42.5 -86.5t39 -97.5t30 -102t15.5 -91t-6 -73.5t-35 -63t-72.5 -59.5q-45 -28 -105 -52.5t-129.5 -45.5t-144.5 -37t-151 -27.5t-149 -17t-138 -4.5zM957 692
q-15 0 -28.5 0.5t-25.5 1.5h-3q-67 3 -133.5 17.5t-138.5 42.5l32 79q29 -11 56 -19.5t54 -15.5l53 72l3 4q6 37 8.5 66t3 57.5t-1.5 60.5t-5 75q-4 46 -7.5 85.5t-7.5 68.5q-4 34 -8 62l84 16l3 -24t6.5 -57.5t7.5 -71t6 -64.5q3 -36 4 -52t2 -28.5t1 -31t1 -58.5
q103 97 197 112q31 5 66 -1.5t64 -23.5t48.5 -45t21.5 -65q2 -23 -3 -46t-14 -43t-20.5 -37t-23.5 -29l-1 -2q-38 -35 -77.5 -55.5t-78.5 -32t-75.5 -15t-69.5 -3.5zM864 782q21 -3 40 -3h2q31 -1 67 -1t74 7t76.5 24t75.5 50q27 24 33.5 52.5t-3.5 51t-34.5 36t-60.5 7.5
q-44 -7 -96 -43t-109 -100q-11 -12 -20 -23l-18 -22z" />
    <glyph glyph-name="uniFB68" unicode="&#x679;" horiz-adv-x="744" arabic-form="initial" 
d="M-103 98q0 42 28.5 70t69.5 28h103q53 -2 102 0.5t90 14.5t72.5 36.5t51.5 66.5q20 43 11.5 122.5t-40.5 185.5q-11 32 -25.5 69.5t-28.5 69.5q-16 38 -33 75l178 88q0 -1 9.5 -20.5t23.5 -52.5t31 -76.5t32 -92.5q93 -287 23 -448q-71 -161 -252 -212
q-54 -16 -105.5 -19t-96.5 -3h-137h-9q-41 0 -69.5 28t-28.5 70zM288 1056q-15 0 -28.5 0.5t-25.5 1.5h-3q-67 3 -133.5 17.5t-138.5 42.5l32 79q29 -11 56 -19.5t54 -15.5l53 72l3 4q6 37 8.5 66t3 57.5t-1.5 60.5t-5 75q-4 46 -7.5 85.5t-7.5 68.5q-4 34 -8 62l84 16
l3 -24t6.5 -57.5t7.5 -71t6 -64.5q3 -36 4 -52t2 -28.5t1 -31t1 -58.5q103 97 197 112q31 5 66 -1.5t64 -23.5t48.5 -45t21.5 -65q2 -23 -3 -46t-14 -43t-20.5 -37t-23.5 -29l-1 -2q-38 -35 -77.5 -55.5t-78.5 -32t-75.5 -15t-69.5 -3.5zM195 1146q21 -3 40 -3h2
q31 -1 67 -1t74 7t76.5 24t75.5 50q27 24 33.5 52.5t-3.5 51t-34.5 36t-60.5 7.5q-44 -7 -96 -43t-109 -100q-11 -12 -20 -23l-18 -22z" />
    <glyph glyph-name="uniFB69" unicode="&#x679;" horiz-adv-x="859" arabic-form="medial" 
d="M-105 98q0 42 28 70.5t70 28.5h76q84 0 161 10t135.5 37t92.5 73.5t31 119.5q-2 56 -9.5 116t-29.5 137l187 53q9 -35 17 -73.5t14 -78.5t10.5 -80.5t6.5 -79.5q2 -37 9 -78t25 -76t49.5 -58t82.5 -23q42 0 71 -28t29 -70q0 -21 -8 -38.5t-21.5 -31t-31 -21t-37.5 -7.5
q-101 0 -167 36.5t-108 91.5q-36 -35 -93 -59.5t-125.5 -39.5t-143.5 -22t-147 -7h-76q-42 0 -70 28t-28 70zM276 834q-15 0 -28.5 0.5t-25.5 1.5h-3q-67 3 -133.5 17.5t-138.5 42.5l32 79q29 -11 56 -19.5t54 -15.5l53 72l3 4q6 37 8.5 66t3 57.5t-1.5 60.5t-5 75
q-4 46 -7.5 85.5t-7.5 68.5q-4 34 -8 62l84 16l3 -24t6.5 -57.5t7.5 -71t6 -64.5q3 -36 4 -52t2 -28.5t1 -31t1 -58.5q103 97 197 112q31 5 66 -1.5t64 -23.5t48.5 -45t21.5 -65q2 -23 -3 -46t-14 -43t-20.5 -37t-23.5 -29l-1 -2q-38 -35 -77.5 -55.5t-78.5 -32t-75.5 -15
t-69.5 -3.5zM183 924q21 -3 40 -3h2q31 -1 67 -1t74 7t76.5 24t75.5 50q27 24 33.5 52.5t-3.5 51t-34.5 36t-60.5 7.5q-44 -7 -96 -43t-109 -100q-11 -12 -20 -23l-18 -22z" />
    <glyph glyph-name="uniFB67" unicode="&#x679;" horiz-adv-x="2236" arabic-form="final" 
d="M1843 164q-39 46 -62 109q-264 -276 -833 -276q-304 2 -503.5 72.5t-289.5 222.5q-29 49 -44.5 101t-20 103.5t0 101.5t16.5 95q12 47 24.5 85t23.5 65.5t19 43.5t10 19l173 -95q0 -1 -9 -20t-20 -50t-21.5 -72t-13 -86t5.5 -92t33 -89q60 -102 215.5 -153.5t400.5 -52.5
q221 0 376 38.5t258 122.5q46 36 79.5 79t57 89t39.5 93t29 92l190 -52q-5 -20 -11 -44.5t-12 -53.5q-12 -59 -11 -100q2 -43 13 -90t42 -84q71 -89 238 -89q42 0 70.5 -28.5t28.5 -70.5t-28.5 -70t-70.5 -28h-8q-260 3 -385 164zM982 636q-15 0 -28.5 0.5t-25.5 1.5h-3
q-67 3 -133.5 17.5t-138.5 42.5l32 79q29 -11 56 -19.5t54 -15.5l53 72l3 4q6 37 8.5 66t3 57.5t-1.5 60.5t-5 75q-4 46 -7.5 85.5t-7.5 68.5q-4 34 -8 62l84 16l3 -24t6.5 -57.5t7.5 -71t6 -64.5q3 -36 4 -52t2 -28.5t1 -31t1 -58.5q103 97 197 112q31 5 66 -1.5t64 -23.5
t48.5 -45t21.5 -65q2 -23 -3 -46t-14 -43t-20.5 -37t-23.5 -29l-1 -2q-38 -35 -77.5 -55.5t-78.5 -32t-75.5 -15t-69.5 -3.5zM889 726q21 -3 40 -3h2q31 -1 67 -1t74 7t76.5 24t75.5 50q27 24 33.5 52.5t-3.5 51t-34.5 36t-60.5 7.5q-44 -7 -96 -43t-109 -100
q-11 -12 -20 -23l-18 -22z" />
    <glyph glyph-name="uni0629" unicode="&#x629;" horiz-adv-x="1023" arabic-form="isolated" 
d="M522 0q-5 0 -24.5 1t-48.5 5.5t-65.5 14t-73.5 27.5q-95 44 -144.5 120t-49.5 179q0 180 163 377q33 39 63.5 70t53.5 52q-30 27 -48 42t-18 16l126 153q1 -2 21.5 -19t52.5 -47t73 -70.5t84 -88.5q122 -139 182.5 -260.5t60.5 -224.5t-45.5 -179t-133.5 -119
q-32 -16 -65 -25.5t-63 -15t-56.5 -7t-44.5 -1.5zM534 704q-29 -26 -67.5 -66t-72.5 -88t-57.5 -100.5t-23.5 -102.5q0 -15 2.5 -31t11 -31.5t24.5 -30.5t43 -27q19 -9 39 -14.5t37 -8.5t31 -4t21 -1q9 0 25.5 0.5t36 3t40 8t39.5 14.5q37 20 53.5 48.5t16.5 73.5
q0 65 -50 156t-145 197q-1 1 -1.5 2t-2.5 2zM448 1365l-162 -162l-164 163l162 163zM858 1364l-162 -163l-164 164l162 162z" />
    <glyph glyph-name="uniFE94" unicode="&#x629;" horiz-adv-x="1126" arabic-form="final" 
d="M679 702q-24 -10 -57 -24.5t-68.5 -33t-70 -41t-62 -48t-44.5 -55t-17 -61.5q0 -33 20.5 -53.5t53 -32t73.5 -15.5t82.5 -3.5t79 4.5t63.5 9q-12 58 -24.5 142t-28.5 212zM581 140q-258 0 -359 125q-28 34 -39.5 72.5t-13 75.5t4.5 69t15 53q27 56 64.5 103t80 84.5
t88 67t88 51.5t80.5 38t66 26q-8 76 -11.5 111.5t-3.5 36.5l196 41v1q1 -9 4 -37t7 -66.5t8.5 -82t8.5 -81.5t7 -66t4 -35q15 -129 28 -211t23 -130.5t16.5 -69.5t9.5 -27q12 -27 27.5 -45t36.5 -28.5t48 -15t62 -4.5q41 0 70 -28t29 -70q0 -20 -8 -38t-21.5 -31.5
t-31.5 -21t-38 -7.5q-38 0 -90.5 6.5t-104.5 30.5q-80 38 -132 122q-62 -10 -116 -14.5t-103 -4.5zM586 1426l-162 -162l-164 163l162 163zM996 1425l-162 -163l-164 164l162 162z" />
    <glyph glyph-name="uniFB7C" unicode="&#x686;" horiz-adv-x="1559" arabic-form="initial" 
d="M-101 98q0 42 29 70t71 28h198q134 0 266.5 25.5t261.5 67.5t252 96t237 111q-68 24 -131.5 52t-124.5 57q-47 22 -91.5 42.5t-85.5 36.5t-78.5 25.5t-68.5 9.5q-41 0 -78 -18t-68.5 -45.5t-56.5 -59t-42.5 -59t-27.5 -46t-10 -19.5l-180 81q1 2 8.5 17.5t21.5 40t35 55
t48 62.5q77 94 165.5 141t184.5 47q48 0 98 -11t101 -29.5t103.5 -42.5t106.5 -49q59 -28 119.5 -55t121.5 -48.5t122 -34.5t123 -13l38 -190q-70 -29 -139.5 -62.5t-143.5 -70.5q-110 -55 -236.5 -110t-265 -99.5t-286.5 -72.5t-299 -28h-190h-8q-21 0 -39 7.5t-31.5 21
t-21.5 31.5t-8 38zM971 -129l162 -162l-164 -164l-162 162zM534 -130l162 -163l-164 -164l-162 163zM756 -446l148 -148l-149 -149l-148 148z" />
    <glyph glyph-name="uniFB7D" unicode="&#x686;" horiz-adv-x="1663" arabic-form="medial" 
d="M-99 97q0 20 7.5 38t21 31.5t31.5 21.5t39 8h183q134 0 257.5 25.5t239.5 66.5t226 93.5t218 105.5l18 9q-68 24 -131.5 53t-124.5 57q-46 22 -90.5 42t-86 35.5t-79 25t-69.5 9.5q-42 0 -79 -18t-68 -45t-56 -58.5t-42 -59t-26.5 -46l-9.5 -18.5l-181 82q0 1 7.5 16
t22 40t35 56t47.5 63q78 91 166.5 139t183.5 48q48 0 98 -11t101 -29.5t103.5 -42t106.5 -48.5q59 -29 119.5 -56t121.5 -49t122.5 -35t122.5 -13l39 -189q-45 -19 -90.5 -40.5t-91.5 -43.5q11 -38 35.5 -64.5t56.5 -45t67.5 -29t69.5 -16.5t63.5 -7.5t47.5 -1.5h6h8
q21 0 39 -8t31.5 -21.5t21 -31.5t7.5 -38q0 -42 -28.5 -69.5t-70.5 -27.5h-14q-99 0 -183 18.5t-150 53.5t-113.5 85.5t-72.5 114.5q-102 -51 -212 -100t-228 -87.5t-245.5 -62t-265.5 -23.5l-183 1q-42 0 -70.5 27.5t-28.5 69.5zM970 -135l162 -162l-164 -164l-162 162z
M533 -136l162 -163l-164 -164l-162 163zM755 -452l148 -148l-149 -149l-148 148z" />
    <glyph glyph-name="uni062C" unicode="&#x62c;" horiz-adv-x="1696" arabic-form="isolated" 
d="M905 -587q142 0 269 42t250 130l114 -161q-148 -102 -315 -158.5t-356 -56.5q-154 0 -288 42t-233.5 122t-157 197t-57.5 266v21.5t1 22.5q6 105 51.5 199t121.5 174t177.5 144t220 109t249.5 68.5t265 23.5q-63 28 -122.5 64.5t-110.5 62.5q-45 23 -82.5 44.5t-75 39
t-78.5 28.5t-93 12q-41 0 -84 -17.5t-83.5 -46t-75 -64t-58.5 -72.5q-47 30 -83 53.5t-79 51.5q36 60 82 111t103 89.5t126.5 62t152.5 29.5q117 -2 227.5 -42.5t215.5 -109.5q79 -52 144.5 -91.5t124 -68t112.5 -48t110 -31.5q-9 -34 -17 -62.5t-16 -56t-16 -55.5t-17 -61
q-41 0 -65.5 1t-50.5 2q-109 2 -230 -14.5t-238.5 -49.5t-225 -82t-191 -112t-135.5 -139.5t-59 -164.5q-2 -115 46 -199t128 -139.5t184.5 -82.5t217.5 -27zM1086 -85l-163 -163l-164 164l163 163z" />
    <glyph glyph-name="uniFE9F" unicode="&#x62c;" horiz-adv-x="1548" arabic-form="initial" 
d="M-101 98q0 42 29 70t71 28h198q134 0 266.5 25.5t261.5 67.5t252 96t237 111q-68 24 -131.5 52t-124.5 57q-47 22 -91.5 42.5t-85.5 36.5t-78.5 25.5t-68.5 9.5q-41 0 -78 -18t-68.5 -45.5t-56.5 -59t-42.5 -59t-27.5 -46t-10 -19.5l-180 81q1 2 8.5 17.5t21.5 40t35 55
t48 62.5q77 94 165.5 141t184.5 47q48 0 98 -11t101 -29.5t103.5 -42.5t106.5 -49q59 -28 119.5 -55t121.5 -48.5t122 -34.5t123 -13l38 -190q-70 -29 -139.5 -62.5t-143.5 -70.5q-110 -55 -236.5 -110t-265 -99.5t-286.5 -72.5t-299 -28h-190h-8q-21 0 -39 7.5t-31.5 21
t-21.5 31.5t-8 38zM928 -365l-163 -163l-164 164l163 163z" />
    <glyph glyph-name="uniFEA0" unicode="&#x62c;" horiz-adv-x="1663" arabic-form="medial" 
d="M-99 97q0 20 7.5 38t21 31.5t31.5 21.5t39 8h183q134 0 257.5 25.5t239.5 66.5t226 93.5t218 105.5l18 9q-68 24 -131.5 53t-124.5 57q-46 22 -90.5 42t-86 35.5t-79 25t-69.5 9.5q-42 0 -79 -18t-68 -45t-56 -58.5t-42 -59t-26.5 -46l-9.5 -18.5l-181 82q0 1 7.5 16
t22 40t35 56t47.5 63q78 91 166.5 139t183.5 48q48 0 98 -11t101 -29.5t103.5 -42t106.5 -48.5q59 -29 119.5 -56t121.5 -49t122.5 -35t122.5 -13l39 -189q-45 -19 -90.5 -40.5t-91.5 -43.5q11 -38 35.5 -64.5t56.5 -45t67.5 -29t69.5 -16.5t63.5 -7.5t47.5 -1.5h6h8
q21 0 39 -8t31.5 -21.5t21 -31.5t7.5 -38q0 -42 -28.5 -69.5t-70.5 -27.5h-14q-99 0 -183 18.5t-150 53.5t-113.5 85.5t-72.5 114.5q-102 -51 -212 -100t-228 -87.5t-245.5 -62t-265.5 -23.5l-183 1q-42 0 -70.5 27.5t-28.5 69.5zM952 -363l-163 -163l-164 164l163 163z" />
    <glyph glyph-name="uniFE9E" unicode="&#x62c;" horiz-adv-x="1696" arabic-form="final" 
d="M912 -791q-142 0 -270 40.5t-228.5 113.5t-167 173t-86.5 218.5t13 251.5t133 272q120 140 300 224q123 57 254 89t257 47l-108 52q-105 53 -192 91.5t-145 46.5q-139 19 -251 -99q-33 -36 -53.5 -69t-29.5 -51l-5 -12l-184 76q2 4 10.5 22t24.5 44.5t39 58.5t54 65
q88 97 194.5 137t226.5 24q84 -11 180.5 -53.5t217.5 -102.5q109 -54 232 -111t268 -105l-38 -192q-2 0 -18.5 0.5t-46 1t-70 -0.5t-89.5 -4q-2 -11 -2.5 -30.5t2.5 -42.5t12 -48t27 -47q24 -29 54.5 -47t70 -28.5t89.5 -14t113 -3.5q20 0 38 -8t31.5 -21.5t21.5 -31.5
t8 -39q0 -41 -29 -68.5t-70 -27.5q-92 0 -166.5 10.5t-133.5 31.5t-104.5 52.5t-79.5 74.5q-36 48 -57 106.5t-24 125.5q-3 21 0 38q-112 -14 -227 -41t-220 -75q-24 -11 -56.5 -30t-68.5 -45.5t-71.5 -61t-65.5 -78t-50.5 -96t-25.5 -115.5q-8 -128 43 -225t141 -160.5
t206 -92.5t238 -22t237 51.5t203 128.5l129 -152q-71 -63 -149 -104.5t-159.5 -66t-164 -35t-162.5 -10.5zM1062 -122l-163 -163l-164 164l163 163z" />
    <glyph glyph-name="uni062E" unicode="&#x62e;" horiz-adv-x="1680" arabic-form="isolated" 
d="M902 -587q142 0 269 42t250 130l114 -161q-148 -102 -315 -158.5t-356 -56.5q-154 0 -288 42t-233.5 122t-157 197t-57.5 266v21.5t1 22.5q6 105 51.5 199t121.5 174t177.5 144t220 109t249.5 68.5t265 23.5q-63 28 -122.5 64.5t-110.5 62.5q-45 23 -82.5 44.5t-75 39
t-78.5 28.5t-93 12q-41 0 -84 -17.5t-83.5 -46t-75 -64t-58.5 -72.5q-47 30 -83 53.5t-79 51.5q36 60 82 111t103 89.5t126.5 62t152.5 29.5q117 -2 227.5 -42.5t215.5 -109.5q79 -52 144.5 -91.5t124 -68t112.5 -48t110 -31.5q-9 -34 -17 -62.5t-16 -56t-16 -55.5t-17 -61
q-41 0 -65.5 1t-50.5 2q-109 2 -230 -14.5t-238.5 -49.5t-225 -82t-191 -112t-135.5 -139.5t-59 -164.5q-2 -115 46 -199t128 -139.5t184.5 -82.5t217.5 -27zM815 1442l-163 -163l-164 164l163 163z" />
    <glyph glyph-name="uniFEA7" unicode="&#x62e;" horiz-adv-x="1548" arabic-form="initial" 
d="M-101 98q0 42 29 70t71 28h198q134 0 266.5 25.5t261.5 67.5t252 96t237 111q-68 24 -131.5 52t-124.5 57q-47 22 -91.5 42.5t-85.5 36.5t-78.5 25.5t-68.5 9.5q-41 0 -78 -18t-68.5 -45.5t-56.5 -59t-42.5 -59t-27.5 -46t-10 -19.5l-180 81q1 2 8.5 17.5t21.5 40t35 55
t48 62.5q77 94 165.5 141t184.5 47q48 0 98 -11t101 -29.5t103.5 -42.5t106.5 -49q59 -28 119.5 -55t121.5 -48.5t122 -34.5t123 -13l38 -190q-70 -29 -139.5 -62.5t-143.5 -70.5q-110 -55 -236.5 -110t-265 -99.5t-286.5 -72.5t-299 -28h-190h-8q-21 0 -39 7.5t-31.5 21
t-21.5 31.5t-8 38zM755 1285l-163 -163l-164 164l163 163z" />
    <glyph glyph-name="uniFEA8" unicode="&#x62e;" horiz-adv-x="1669" arabic-form="medial" 
d="M-99 97q0 20 7.5 38t21 31.5t31.5 21.5t39 8h183q134 0 257.5 25.5t239.5 66.5t226 93.5t218 105.5l18 9q-68 24 -131.5 53t-124.5 57q-46 22 -90.5 42t-86 35.5t-79 25t-69.5 9.5q-42 0 -79 -18t-68 -45t-56 -58.5t-42 -59t-26.5 -46l-9.5 -18.5l-181 82q0 1 7.5 16
t22 40t35 56t47.5 63q78 91 166.5 139t183.5 48q48 0 98 -11t101 -29.5t103.5 -42t106.5 -48.5q59 -29 119.5 -56t121.5 -49t122.5 -35t122.5 -13l39 -189q-45 -19 -90.5 -40.5t-91.5 -43.5q11 -38 35.5 -64.5t56.5 -45t67.5 -29t69.5 -16.5t63.5 -7.5t47.5 -1.5h6h8
q21 0 39 -8t31.5 -21.5t21 -31.5t7.5 -38q0 -42 -28.5 -69.5t-70.5 -27.5h-14q-99 0 -183 18.5t-150 53.5t-113.5 85.5t-72.5 114.5q-102 -51 -212 -100t-228 -87.5t-245.5 -62t-265.5 -23.5l-183 1q-42 0 -70.5 27.5t-28.5 69.5zM697 1245l-163 -163l-164 164l163 163z" />
    <glyph glyph-name="uniFEA6" unicode="&#x62e;" horiz-adv-x="1707" arabic-form="final" 
d="M912 -791q-142 0 -270 40.5t-228.5 113.5t-167 173t-86.5 218.5t13 251.5t133 272q120 140 300 224q123 57 254 89t257 47l-108 52q-105 53 -192 91.5t-145 46.5q-139 19 -251 -99q-33 -36 -53.5 -69t-29.5 -51l-5 -12l-184 76q2 4 10.5 22t24.5 44.5t39 58.5t54 65
q88 97 194.5 137t226.5 24q84 -11 180.5 -53.5t217.5 -102.5q109 -54 232 -111t268 -105l-38 -192q-2 0 -18.5 0.5t-46 1t-70 -0.5t-89.5 -4q-2 -11 -2.5 -30.5t2.5 -42.5t12 -48t27 -47q24 -29 54.5 -47t70 -28.5t89.5 -14t113 -3.5q20 0 38 -8t31.5 -21.5t21.5 -31.5
t8 -39q0 -41 -29 -68.5t-70 -27.5q-92 0 -166.5 10.5t-133.5 31.5t-104.5 52.5t-79.5 74.5q-36 48 -57 106.5t-24 125.5q-3 21 0 38q-112 -14 -227 -41t-220 -75q-24 -11 -56.5 -30t-68.5 -45.5t-71.5 -61t-65.5 -78t-50.5 -96t-25.5 -115.5q-8 -128 43 -225t141 -160.5
t206 -92.5t238 -22t237 51.5t203 128.5l129 -152q-71 -63 -149 -104.5t-159.5 -66t-164 -35t-162.5 -10.5zM764 1362l-163 -163l-164 164l163 163z" />
    <glyph glyph-name="uni0630" unicode="&#x630;" horiz-adv-x="1138" arabic-form="isolated" 
d="M545 1q-48 0 -113.5 12t-130.5 30.5t-119 41.5t-79 46l82 188q37 -24 89 -46.5t111 -39t121.5 -24.5t120.5 -3t108 25t84 61q27 31 7 116q-11 49 -35.5 102.5t-59 107t-76.5 104.5t-87.5 94.5t-92.5 77.5t-92 54l81 182q59 -27 119 -70t116.5 -97t108 -116.5t93.5 -129
t73 -133.5t46 -131q12 -56 12 -101t-8.5 -80t-22.5 -61t-30 -45q-92 -111 -257 -147q-38 -10 -80 -14t-89 -4zM625 1464l-163 -163l-164 164l163 163z" />
    <glyph glyph-name="uniFEAC" unicode="&#x630;" horiz-adv-x="1264" arabic-form="final" 
d="M531 0q-117 0 -218.5 49t-185.5 136l113 159q60 -56 121 -89t120.5 -46t117 -7.5t111.5 26.5q51 20 83.5 43.5t49.5 40.5l-316 760l182 76q32 -78 77 -187q38 -94 95 -231.5t134 -320.5q20 -48 35.5 -87.5t39.5 -67t64 -43t108 -15.5q41 0 70 -28t29 -70t-29 -70t-70 -28
q-65 0 -115.5 10.5t-89 28.5t-67.5 42.5t-50 51.5q-30 -22 -68.5 -46t-88.5 -44q-56 -22 -116 -32.5t-136 -10.5zM790 1468l-163 -163l-164 164l163 163z" />
    <glyph glyph-name="uni0688" unicode="&#x688;" horiz-adv-x="1149" arabic-form="isolated" 
d="M553 1q-48 0 -113.5 12t-130.5 30.5t-119 41.5t-79 46l82 188q37 -24 89 -46.5t111 -39t121.5 -24.5t120.5 -3t108 25t84 61q27 31 7 116q-11 49 -35.5 102.5t-59 107t-76.5 104.5t-87.5 94.5t-92.5 77.5t-92 54l81 182q59 -27 119 -70t116.5 -97t108 -116.5t93.5 -129
t73 -133.5t46 -131q12 -56 12 -101t-8.5 -80t-22.5 -61t-30 -45q-92 -111 -257 -147q-38 -10 -80 -14t-89 -4zM418 1189q-15 0 -28.5 0.5t-25.5 1.5h-3q-67 3 -133.5 17.5t-138.5 42.5l32 79q29 -11 56 -19.5t54 -15.5l53 72l3 4q6 37 8.5 66t3 57.5t-1.5 60.5t-5 75
q-4 46 -7.5 85.5t-7.5 68.5q-4 34 -8 62l84 16l3 -24t6.5 -57.5t7.5 -71t6 -64.5q3 -36 4 -52t2 -28.5t1 -31t1 -58.5q103 97 197 112q31 5 66 -1.5t64 -23.5t48.5 -45t21.5 -65q2 -23 -3 -46t-14 -43t-20.5 -37t-23.5 -29l-1 -2q-38 -35 -77.5 -55.5t-78.5 -32t-75.5 -15
t-69.5 -3.5zM325 1279q21 -3 40 -3h2q31 -1 67 -1t74 7t76.5 24t75.5 50q27 24 33.5 52.5t-3.5 51t-34.5 36t-60.5 7.5q-44 -7 -96 -43t-109 -100q-11 -12 -20 -23l-18 -22z" />
    <glyph glyph-name="uniFB89" unicode="&#x688;" horiz-adv-x="1264" arabic-form="final" 
d="M531 0q-117 0 -218.5 49t-185.5 136l113 159q60 -56 121 -89t120.5 -46t117 -7.5t111.5 26.5q51 20 83.5 43.5t49.5 40.5l-316 760l182 76q32 -78 77 -187q38 -94 95 -231.5t134 -320.5q20 -48 35.5 -87.5t39.5 -67t64 -43t108 -15.5q41 0 70 -28t29 -70t-29 -70t-70 -28
q-65 0 -115.5 10.5t-89 28.5t-67.5 42.5t-50 51.5q-30 -22 -68.5 -46t-88.5 -44q-56 -22 -116 -32.5t-136 -10.5zM559 1241q-15 0 -28.5 0.5t-25.5 1.5h-3q-67 3 -133.5 17.5t-138.5 42.5l32 79q29 -11 56 -19.5t54 -15.5l53 72l3 4q6 37 8.5 66t3 57.5t-1.5 60.5t-5 75
q-4 46 -7.5 85.5t-7.5 68.5q-4 34 -8 62l84 16l3 -24t6.5 -57.5t7.5 -71t6 -64.5q3 -36 4 -52t2 -28.5t1 -31t1 -58.5q103 97 197 112q31 5 66 -1.5t64 -23.5t48.5 -45t21.5 -65q2 -23 -3 -46t-14 -43t-20.5 -37t-23.5 -29l-1 -2q-38 -35 -77.5 -55.5t-78.5 -32t-75.5 -15
t-69.5 -3.5zM466 1331q21 -3 40 -3h2q31 -1 67 -1t74 7t76.5 24t75.5 50q27 24 33.5 52.5t-3.5 51t-34.5 36t-60.5 7.5q-44 -7 -96 -43t-109 -100q-11 -12 -20 -23l-18 -22z" />
    <glyph glyph-name="uni0632" unicode="&#x632;" horiz-adv-x="761" arabic-form="isolated" 
d="M494 650q28 -93 53 -184q10 -39 21 -81t20.5 -84t16.5 -81.5t11 -73.5q1 -11 2 -25t1 -31q0 -87 -25.5 -169t-71 -157.5t-108 -144.5t-136 -129.5t-155 -112.5t-165.5 -93l-87 176q105 52 204 120.5t176.5 149.5t124.5 172t47 188q0 5 -1 16.5t-2 22.5v-1q-3 31 -10 67.5
t-16 75t-19 77t-20 74.5q-24 84 -51 168zM539 1056l-163 -163l-164 164l163 163z" />
    <glyph glyph-name="uniFEB0" unicode="&#x632;" horiz-adv-x="837" arabic-form="final" 
d="M625 69q0 -87 -25.5 -169t-71 -158t-108 -144.5t-136 -129.5t-155 -112.5t-165.5 -93.5l-86 177q72 37 143 81t134 95t116 108t89.5 119t54.5 128.5t11 137.5v-2q-7 57 -21.5 122.5t-32 128.5t-34 118.5t-28.5 92.5l188 58q38 -116 74.5 -197.5t75 -133t80.5 -75.5
t92 -24h5q21 0 39 -8t31.5 -21.5t21 -31.5t7.5 -38q0 -42 -28.5 -69.5t-70.5 -27.5h-1q-14 0 -36.5 1t-50 8t-56.5 22t-56 42v-4zM543 1042l-163 -163l-164 164l163 163z" />
    <glyph glyph-name="uni0691" unicode="&#x691;" horiz-adv-x="782" arabic-form="isolated" 
d="M494 650q28 -93 53 -184q10 -39 21 -81t20.5 -84t16.5 -81.5t11 -73.5q1 -11 2 -25t1 -31q0 -87 -25.5 -169t-71 -157.5t-108 -144.5t-136 -129.5t-155 -112.5t-165.5 -93l-87 176q105 52 204 120.5t176.5 149.5t124.5 172t47 188q0 5 -1 16.5t-2 22.5v-1q-3 31 -10 67.5
t-16 75t-19 77t-20 74.5q-24 84 -51 168zM313 755q-15 0 -28.5 0.5t-25.5 1.5h-3q-67 3 -133.5 17.5t-138.5 42.5l32 79q29 -11 56 -19.5t54 -15.5l53 72l3 4q6 37 8.5 66t3 57.5t-1.5 60.5t-5 75q-4 46 -7.5 85.5t-7.5 68.5q-4 34 -8 62l84 16l3 -24t6.5 -57.5t7.5 -71
t6 -64.5q3 -36 4 -52t2 -28.5t1 -31t1 -58.5q103 97 197 112q31 5 66 -1.5t64 -23.5t48.5 -45t21.5 -65q2 -23 -3 -46t-14 -43t-20.5 -37t-23.5 -29l-1 -2q-38 -35 -77.5 -55.5t-78.5 -32t-75.5 -15t-69.5 -3.5zM220 845q21 -3 40 -3h2q31 -1 67 -1t74 7t76.5 24t75.5 50
q27 24 33.5 52.5t-3.5 51t-34.5 36t-60.5 7.5q-44 -7 -96 -43t-109 -100q-11 -12 -20 -23l-18 -22z" />
    <glyph glyph-name="uniFB8D" unicode="&#x691;" horiz-adv-x="826" arabic-form="final" 
d="M625 69q0 -87 -25.5 -169t-71 -158t-108 -144.5t-136 -129.5t-155 -112.5t-165.5 -93.5l-86 177q72 37 143 81t134 95t116 108t89.5 119t54.5 128.5t11 137.5v-2q-7 57 -21.5 122.5t-32 128.5t-34 118.5t-28.5 92.5l188 58q38 -116 74.5 -197.5t75 -133t80.5 -75.5
t92 -24h5q21 0 39 -8t31.5 -21.5t21 -31.5t7.5 -38q0 -42 -28.5 -69.5t-70.5 -27.5h-1q-14 0 -36.5 1t-50 8t-56.5 22t-56 42v-4zM345 720q-15 0 -28.5 0.5t-25.5 1.5h-3q-67 3 -133.5 17.5t-138.5 42.5l32 79q29 -11 56 -19.5t54 -15.5l53 72l3 4q6 37 8.5 66t3 57.5
t-1.5 60.5t-5 75q-4 46 -7.5 85.5t-7.5 68.5q-4 34 -8 62l84 16l3 -24t6.5 -57.5t7.5 -71t6 -64.5q3 -36 4 -52t2 -28.5t1 -31t1 -58.5q103 97 197 112q31 5 66 -1.5t64 -23.5t48.5 -45t21.5 -65q2 -23 -3 -46t-14 -43t-20.5 -37t-23.5 -29l-1 -2q-38 -35 -77.5 -55.5
t-78.5 -32t-75.5 -15t-69.5 -3.5zM252 810q21 -3 40 -3h2q31 -1 67 -1t74 7t76.5 24t75.5 50q27 24 33.5 52.5t-3.5 51t-34.5 36t-60.5 7.5q-44 -7 -96 -43t-109 -100q-11 -12 -20 -23l-18 -22z" />
    <glyph glyph-name="uni0698" unicode="&#x698;" horiz-adv-x="892" arabic-form="isolated" 
d="M592 650q28 -93 53 -184q10 -39 21 -81t20.5 -84t16.5 -81.5t11 -73.5q1 -11 2 -25t1 -31q0 -87 -25.5 -169t-71 -157.5t-108 -144.5t-136 -129.5t-155 -112.5t-165.5 -93l-87 176q105 52 204 120.5t176.5 149.5t124.5 172t47 188q0 5 -1 16.5t-2 22.5v-1q-3 31 -10 67.5
t-16 75t-19 77t-20 74.5q-24 84 -51 168zM519 963l162 162l164 -164l-162 -162zM80 964l162 163l164 -164l-162 -163zM321 1265l148 148l149 -149l-148 -148z" />
    <glyph glyph-name="uniFB8B" unicode="&#x698;" horiz-adv-x="871" arabic-form="final" 
d="M675 69q0 -87 -25.5 -169t-71 -158t-108 -144.5t-136 -129.5t-155 -112.5t-165.5 -93.5l-86 177q72 37 143 81t134 95t116 108t89.5 119t54.5 128.5t11 137.5v-2q-7 57 -21.5 122.5t-32 128.5t-34 118.5t-28.5 92.5l188 58q38 -116 74.5 -197.5t75 -133t80.5 -75.5
t92 -24h5q21 0 39 -8t31.5 -21.5t21 -31.5t7.5 -38q0 -42 -28.5 -69.5t-70.5 -27.5h-1q-14 0 -36.5 1t-50 8t-56.5 22t-56 42v-4zM496 954l162 162l164 -164l-162 -162zM57 955l162 163l164 -164l-162 -163zM298 1256l148 148l149 -149l-148 -148z" />
    <glyph glyph-name="uni0634" unicode="&#x634;" horiz-adv-x="2708" arabic-form="isolated" 
d="M2428 924q5 -10 18.5 -36t31 -64t36 -86t34 -101t25.5 -110t10 -112q-1 -86 -20.5 -161t-60 -131t-104.5 -88t-155 -32q-28 0 -60 8.5t-64 25t-61 41.5t-50 57q-60 -71 -135 -100t-159 -33q-48 -2 -85 7t-63 21q-31 14 -53 33q3 -87 -9.5 -170.5t-43.5 -159t-82.5 -140.5
t-127.5 -115q-92 -63 -208.5 -96t-261.5 -40q-10 0 -20 -0.5t-19 -0.5q-132 0 -240.5 37.5t-193.5 112.5q-76 67 -125.5 161t-65.5 205q-10 61 -9 122.5t8 118.5t19 107.5t24 90.5q31 102 66.5 174.5t61.5 107.5l159 -117q-20 -26 -47.5 -87t-51 -141t-35 -171t0.5 -177
q4 -26 13.5 -62t29 -74t50 -75.5t76.5 -67t109 -48t148 -18.5h33q213 9 342.5 84t174.5 214q26 82 28.5 165t-10 162t-36 150.5t-48.5 129.5q-24 54 -41.5 83t-17.5 31l167 108q6 -16 16 -38q8 -19 19.5 -45.5t27.5 -61.5q27 -63 56.5 -121.5t66 -103.5t82.5 -71t107 -24
q52 1 84.5 21t52 53t27 77t10 93.5t1 102t-0.5 102.5l203 20l2 -30q1 -13 1 -28t1 -28q1 -25 3.5 -63.5t8.5 -82t17 -87.5t28.5 -79.5t43.5 -57.5t63 -22q34 0 60.5 19.5t44.5 52.5t26 75.5t6 88.5q-3 64 -18.5 122.5t-35.5 110.5t-42 95t-38 75zM1962 1179l162 162
l164 -164l-162 -162zM1523 1180l162 163l164 -164l-162 -163zM1764 1481l148 148l149 -149l-148 -148z" />
    <glyph glyph-name="uniFEB7" unicode="&#x634;" horiz-adv-x="1669" arabic-form="initial" 
d="M-92 97q0 19 7 36.5t19.5 31t29.5 21.5t36 10q59 0 106.5 23t84 61.5t64.5 88.5t48 104.5t33.5 110t23.5 104.5l198 -42q-8 -24 -19.5 -62t-22.5 -81.5t-19 -89t-8 -84.5q0 -27 5 -52.5t17 -45.5t33 -32t53 -12q51 0 91.5 28t72 73t54.5 102t39.5 116t27.5 114.5t17 96.5
l192 -35l-5.5 -32.5t-13 -79t-13.5 -99t-6 -93.5q0 -37 5.5 -70.5t18 -59t33 -42t50.5 -19.5q46 -6 76.5 1t48.5 18.5t26.5 24.5t11.5 19h-1q14 22 19.5 50t5.5 60q0 57 -15.5 123t-37 129.5t-45 118t-39.5 86.5l175 92q5 -10 19 -38.5t32 -70t37.5 -93.5t35.5 -109.5
t26.5 -117.5t10.5 -117q0 -86 -24 -155.5t-72 -118.5t-120.5 -75.5t-169.5 -25.5q-39 0 -77 12t-73 32.5t-65 48t-51 59.5q-60 -70 -136 -111t-161 -41q-37 0 -76.5 9.5t-75.5 28.5t-65.5 47t-45.5 65q-60 -63 -136 -100t-182 -39h-16q-19 1 -36 9t-29.5 21t-19.5 30.5
t-7 37.5zM975 1189l162 162l164 -164l-162 -162zM536 1190l162 163l164 -164l-162 -163zM777 1491l148 148l149 -149l-148 -148z" />
    <glyph glyph-name="uniFEB8" unicode="&#x634;" horiz-adv-x="1876" arabic-form="medial" 
d="M-101 98q0 19 8.5 36.5t22 31t31.5 21.5t37 9h10q42 0 80 22.5t71 57.5t60.5 78t49.5 84q21 40 37.5 79.5t29.5 74t21.5 62t13.5 43.5q5 23 5 24l192 -53q-1 -1 -2.5 -7t-4.5 -17q-6 -23 -15 -67t-17 -98q-11 -87 -5 -152.5t27 -99.5q14 -26 44 -29q12 -3 22 -3
q38 0 73 25q45 34 88 107t77 179q17 49 28 93t17 75q5 25 8 39.5t3 16.5l195 -37q-2 -1 -4 -15.5t-7 -40.5t-9 -63.5t-5 -79.5q-5 -91 8 -158t41 -101q11 -14 29.5 -25t55.5 -11q52 0 84 36q34 37 54.5 109t26.5 170q2 45 2 83.5t-2 66.5q-3 25 -3.5 40.5t-0.5 16.5l196 16
q2 -5 4 -56q3 -21 6.5 -48t9.5 -58.5t14 -66t19 -68.5q79 -244 221 -244h12h8q42 0 70 -28t28 -70q0 -41 -28 -69.5t-70 -28.5h-8h-12q-81 0 -151.5 33.5t-126.5 98.5q-28 31 -55 75q-28 -62 -66 -103q-45 -51 -104 -77.5t-128 -26.5q-74 0 -135 28.5t-104 82.5
q-14 18 -26 38t-22 43q-56 -82 -122 -132q-89 -63 -189 -63q-14 0 -27 1.5t-27 3.5q-118 22 -181 120q-10 17 -18 35.5t-16 38.5q-33 -43 -67 -75q-124 -121 -273 -121h-10q-20 0 -38 7.5t-31.5 21t-21.5 31.5t-8 38zM1065 1157l162 162l164 -164l-162 -162zM626 1158
l162 163l164 -164l-162 -163zM867 1459l148 148l149 -149l-148 -148z" />
    <glyph glyph-name="uniFEB6" unicode="&#x634;" horiz-adv-x="2889" arabic-form="final" 
d="M2891 197q20 0 38 -8t31.5 -21.5t21.5 -31.5t8 -39q0 -20 -8 -38t-21.5 -31.5t-31.5 -21t-38 -7.5h-9h-11q-81 0 -151.5 34t-126.5 99q-15 16 -28.5 35t-26.5 41q-14 -32 -30.5 -57.5t-35.5 -47.5q-45 -50 -103 -77t-128 -27q-28 0 -59.5 9t-63 26t-60 41.5t-49.5 56.5
q-60 -70 -135.5 -99t-160.5 -34q-47 -2 -83.5 7.5t-62.5 21.5q-30 14 -52 32q3 -87 -9.5 -170.5t-43.5 -159t-83 -140.5t-128 -116q-181 -123 -470 -135q-10 0 -20 -1t-19 -1q-264 0 -434 150q-76 68 -125.5 162t-65.5 205q-10 61 -9 122.5t8 118.5t19 107t24 90
q31 103 66.5 175.5t61.5 107.5l159 -118q-13 -17 -30 -51t-34.5 -78.5t-33.5 -98.5t-26.5 -112t-13.5 -118t5 -117q4 -26 13.5 -62t29 -74.5t50 -76t76.5 -67t109.5 -48t147.5 -18.5h34q212 10 341.5 85t174.5 213q26 82 32.5 170t-1 172t-26.5 159.5t-44 134.5
q-12 27 -19 43.5t-10.5 25.5t-5 12.5l-1.5 3.5l166 108q4 -11 9 -26q5 -13 12 -31t16 -40q24 -63 46.5 -128.5t53.5 -119t75.5 -87t113.5 -33.5q51 0 86.5 19.5t58 52.5t35 77.5t18.5 94.5t8 103t4 104l203 -15q0 -15 -1 -30q-1 -13 -1.5 -28t-1.5 -28q-1 -25 -2 -61t1 -75
t9 -78.5t22 -70.5t39 -50.5t61 -19.5q28 0 45 11t34 31q34 37 54.5 109t26.5 171q2 45 1.5 83.5t-1.5 65.5q-3 26 -3.5 41t-0.5 17l196 14q1 0 2 -15.5t2 -40.5q5 -40 16 -105t33 -136q79 -242 221 -242h20zM2065 1104l162 162l164 -164l-162 -162zM1626 1105l162 163
l164 -164l-162 -163zM1867 1406l148 148l149 -149l-148 -148z" />
    <glyph glyph-name="uni0636" unicode="&#x636;" horiz-adv-x="2927" arabic-form="isolated" 
d="M836 -649q-24 0 -49.5 1t-51.5 5q-98 7 -179.5 31t-147.5 64q-63 37 -108.5 87.5t-78.5 113.5q-58 123 -57 280q0 63 10 128.5t28 137.5q15 60 34 114t38 97.5t34.5 74t24.5 43.5l166 -106q-8 -10 -26.5 -48.5t-39 -95t-39.5 -126t-27.5 -141.5t-2.5 -142.5t35 -128.5
q79 -164 353 -187q280 -24 430 105q43 36 71.5 78.5t46.5 87.5t26 89t11 82q6 85 -8 176t-35 171.5t-42.5 143t-31.5 89.5q-4 4 -5 8.5t-4 9.5l184 77l8 -23q32 -75 72 -142t75 -122q13 -20 31.5 -39.5t42.5 -39.5q18 33 42 73t55 83t67.5 87t80.5 86q89 85 194 140t214 75
q128 22 236.5 -9t188.5 -115q60 -60 87 -130.5t22 -146.5q-8 -114 -62.5 -204.5t-151.5 -153.5q-54 -35 -114 -58t-119 -36.5t-115 -20t-104 -7.5q-114 -5 -225.5 11.5t-200.5 48.5q-51 20 -97 44t-87 53q3 -74 0 -144q-10 -139 -63 -255q-29 -66 -69.5 -120.5t-91.5 -98.5
q-184 -155 -475 -155zM1798 209q43 -15 98 -26t116 -16t125 -3t126.5 12t120 29.5t104.5 49.5q115 72 127 205q1 21 -4 40.5t-13.5 36t-18.5 29.5t-18 21q-29 28 -61.5 44t-65.5 23t-64.5 6t-57.5 -7q-81 -14 -159.5 -56t-146.5 -106q-38 -36 -69.5 -74t-57.5 -75t-46 -71
t-35 -62zM2437 1250l-163 -163l-164 164l163 163z" />
    <glyph glyph-name="uniFEBF" unicode="&#x636;" horiz-adv-x="1931" arabic-form="initial" 
d="M777 188q53 -6 117.5 -8.5t133 -0.5t139 9.5t136 23t122.5 40t100 59.5q81 66 90 171q0 21 -5.5 40.5t-13.5 36t-18 29.5t-18 21q-29 30 -61 46t-64.5 22t-64.5 4.5t-59 -5.5q-79 -16 -157.5 -57.5t-146.5 -106.5q-46 -44 -83 -90.5t-65.5 -90t-48.5 -81t-33 -62.5z
M-99 98q0 42 29 70t70 28q60 0 102.5 9.5t71.5 23.5t47 30.5t29 31.5q35 47 52 112.5t33 141.5q8 43 17 83t22 79l189 -57q-8 -20 -12.5 -40.5t-9.5 -41.5h1q-4 -20 -8.5 -58t-2 -82t15 -90t41.5 -83q13 29 36.5 74t58.5 99t81.5 112.5t105.5 114.5q44 42 93 77.5t101.5 63
t106 46t106.5 27.5q128 25 236.5 -7t189.5 -116q59 -60 86.5 -130.5t22.5 -146.5q-12 -191 -161 -311q-68 -55 -152 -90t-173.5 -54.5t-179.5 -26.5t-170 -7q-93 0 -161.5 5.5t-97.5 10.5q-81 8 -150 38q-21 10 -40.5 21.5t-39 27.5t-40 37.5t-42.5 50.5q-63 -88 -161 -129
t-235 -42h-9q-41 0 -70 28t-29 70zM1462 1250l-163 -163l-164 164l163 163z" />
    <glyph glyph-name="uniFEC0" unicode="&#x636;" horiz-adv-x="1931" arabic-form="medial" 
d="M-99 97q0 42 28.5 70.5t69.5 28.5h9q119 3 161 24q45 23 81 70q35 45 56 111.5t41 154.5q8 38 16.5 76t19.5 75l189 -58q-8 -18 -12.5 -38.5t-9.5 -43.5h1q-4 -20 -7.5 -57.5t-1.5 -80.5t13.5 -86.5t37.5 -76.5l6 -11q13 29 37 74t59 99t81.5 113t103.5 115
q89 85 193.5 139.5t213.5 74.5q128 22 237 -9t189 -116q59 -59 86.5 -130t22.5 -146q-12 -163 -120 -273h231q42 0 71 -28.5t29 -70.5t-29 -69.5t-71 -27.5l-252 -1q-110 0 -176.5 6.5t-106.5 24.5q-105 -29 -211.5 -39t-200.5 -10q-90 0 -156.5 6t-100.5 9q-42 5 -80.5 14
t-70.5 24q-44 19 -78.5 47t-63.5 64q-14 11 -24 30q-64 -85 -161 -128q-99 -47 -252 -47q-41 0 -69.5 27.5t-28.5 69.5zM787 188q54 -6 118 -8.5t133 0t139 10.5t135.5 23.5t123 40t100.5 59.5q84 67 90 169q1 22 -4 41.5t-13 35.5t-18 28.5t-18 20.5q-29 30 -62 46t-66 22
t-64.5 4.5t-57.5 -5.5q-80 -13 -158.5 -54.5t-147.5 -107.5q-46 -43 -83 -90t-65.5 -90.5t-48.5 -81.5t-33 -63zM1517 1228l-163 -163l-164 164l163 163z" />
    <glyph glyph-name="uniFEBE" unicode="&#x636;" horiz-adv-x="2867" arabic-form="final" 
d="M1762 208q44 -15 99 -26t116 -16.5t125.5 -3.5t126.5 12t119.5 29.5t104.5 50.5q116 74 125 205q1 22 -4 41t-13 35t-18 28.5t-18 21.5q-28 29 -60.5 45t-66 22t-65.5 5t-57 -5q-81 -14 -159.5 -57t-146.5 -107q-38 -36 -69.5 -74t-57 -74.5t-46 -70.5t-35.5 -61zM2868 0
q-48 0 -93 8.5t-83.5 22t-68 30t-45.5 31.5l-4 4l-13 -8q-54 -35 -114 -58t-119 -36.5t-115 -20t-104 -7.5q-115 -5 -226 11.5t-200 49.5q-51 18 -97.5 42t-88.5 55q3 -37 4 -72t-2 -72q-5 -71 -20.5 -134t-41.5 -121q-29 -66 -70 -120.5t-92 -99.5q-184 -155 -474 -155
q-24 0 -49 1t-51 3q-99 10 -180.5 32.5t-147.5 64.5q-127 74 -188 201q-30 61 -44 131t-13 149q1 63 10.5 128.5t27.5 137.5q15 60 34 114.5t37.5 98.5t34.5 74.5t24 44.5l167 -108q-7 -11 -25.5 -50t-39 -95t-40 -125t-28 -141t-2.5 -142.5t35 -129.5q42 -85 128.5 -130
t225.5 -58q140 -11 246.5 14.5t183.5 89.5q43 37 71.5 80t46 88t25.5 89t11 82q4 56 -1 116t-15.5 119t-25.5 114t-29.5 101t-27 80t-18.5 51q-4 5 -5 10t-2 7l182 75q38 -90 78.5 -160.5t77.5 -124.5q13 -20 31 -40.5t42 -38.5q18 33 42 73t55 82.5t68 87t82 86.5
q88 86 193.5 141t212.5 75q128 22 236.5 -9t188.5 -116q60 -60 87 -131t22 -146q-4 -58 -20.5 -109.5t-44.5 -99.5q5 -7 20.5 -14t36.5 -13t45.5 -10t47.5 -4h8q42 0 70.5 -28.5t28.5 -70.5q0 -41 -28.5 -69t-70.5 -28zM2459 1201l-163 -163l-164 164l163 163z" />
    <glyph glyph-name="uni0638" unicode="&#x638;" horiz-adv-x="1806" arabic-form="isolated" 
d="M856 0q-33 0 -64.5 1t-61.5 3h-5q-156 8 -311.5 42t-322.5 98l72 185q133 -52 258 -83q21 31 53.5 75t78.5 103q12 86 18 154t7 134.5t-3 141t-11 173.5q-8 108 -17 200.5t-17 160t-13.5 106t-5.5 39.5l196 36l3 -26t8 -68t11 -96t11.5 -110t11 -110t8.5 -97
q4 -56 6.5 -89.5t4 -56.5t2.5 -41.5t1.5 -43.5t1 -63.5t2.5 -101.5q241 229 461 262q49 10 102 5.5t104.5 -20.5t98 -44t82 -66t56.5 -86t23 -104q4 -55 -7.5 -108t-33 -100t-48.5 -87t-54 -68l-1 -2l-2 -2q-89 -80 -181.5 -128.5t-183 -74.5t-176.5 -34.5t-162 -8.5z
M641 208q24 -3 46 -4t48 -3h2q73 -3 157.5 -2.5t173 17t178.5 56.5t176 117q18 19 34.5 44.5t28.5 53.5t18.5 57.5t5.5 57.5q-8 43 -32.5 70t-59 42t-73.5 18.5t-75 -0.5q-101 -16 -222 -100t-255 -233zM1440 1349l-163 -163l-164 164l163 163z" />
    <glyph glyph-name="uniFEC7" unicode="&#x638;" horiz-adv-x="1543" arabic-form="initial" 
d="M378 196q23 -1 47.5 -0.5t48.5 0.5q75 0 158.5 1.5t172 18t179.5 54.5t181 112q56 47 78.5 103.5t11.5 113.5q-7 40 -32.5 68t-60 44.5t-74.5 20.5t-77 -4q-103 -23 -222.5 -105t-255.5 -231q-25 -27 -46.5 -53t-42.5 -51zM-102 98q0 20 8 37.5t21.5 31t31.5 21.5t38 8h9
h142q14 22 47.5 81t100.5 143q11 64 16.5 157.5t6.5 220.5q1 125 -5 244.5t-18 236.5q-11 118 -17 175.5t-6 58.5l202 36q55 -417 45 -887q241 224 460 262q51 8 100.5 7.5t96.5 -11.5t90 -34t81 -60q45 -45 70 -97.5t30 -118.5q4 -54 -7.5 -107.5t-32.5 -101.5t-48 -88
t-54 -68l-4 -6q-89 -80 -182 -127t-184 -72.5t-177 -33t-161 -7.5l-592 1h-9q-20 0 -38 7.5t-31.5 20.5t-21.5 31t-8 39zM1184 1371l-163 -163l-164 164l163 163z" />
    <glyph glyph-name="uniFEC8" unicode="&#x638;" horiz-adv-x="1592" arabic-form="medial" 
d="M388 196q75 0 145.5 -1t137.5 1.5t130.5 12t126 30t123.5 55t122 88.5q18 18 34.5 43.5t28.5 54t18.5 58.5t5.5 58q-7 42 -32 69t-59.5 42t-73.5 19.5t-74 1.5q-102 -18 -222 -102.5t-256 -232.5q-24 -29 -46 -54.5t-42 -51.5zM-106 98q0 42 28 70t70 28h8h144
q14 21 53 78.5t101 132.5l7 10q10 12 15 56t6.5 109t0.5 147t-5 170t-9.5 177.5t-12 170.5t-13.5 148t-14 110l195 36q32 -203 47.5 -420t13.5 -462q246 229 461 262q200 32 361 -98q98 -83 107 -215q4 -56 -8 -109.5t-33 -100.5t-48 -86.5t-54 -67.5q-9 -9 -19 -17.5
t-19 -15t-15.5 -11l-6.5 -4.5h334q42 0 70 -27.5t28 -69.5q0 -41 -28 -69.5t-70 -28.5h-1v-1q-75 0 -132.5 -0.5t-114.5 -0.5q-44 0 -91.5 1t-97 5.5t-98.5 13t-95 23.5q-97 -29 -186 -35.5t-168 -6.5h-613q-42 0 -70 28t-28 70zM1220 1354l-163 -163l-164 164l163 163z" />
    <glyph glyph-name="uniFEC6" unicode="&#x638;" horiz-adv-x="1868" arabic-form="final" 
d="M930 198q60 3 123.5 12t127 30.5t127 57t125.5 90.5q18 19 34.5 44.5t28.5 53.5t18.5 57.5t5.5 57.5q-7 41 -32 68.5t-59.5 43t-74 20t-74.5 -1.5q-101 -16 -222 -100t-255 -233l-151 -191zM949 0q-21 -1 -41.5 -1h-40.5q-23 0 -49.5 0.5t-76.5 3.5h-5q-156 8 -311.5 42
t-322.5 98l72 185q133 -52 258 -83q21 31 52.5 74t72.5 94l7 10q12 86 18 154t7 134.5t-3 141t-11 173.5q-8 108 -17 200.5t-17 160t-13.5 106t-5.5 39.5l196 36l3 -26t8 -68t11 -96t11.5 -110t11 -110t8.5 -97q4 -56 6.5 -89.5t4 -56.5t2.5 -41.5t1.5 -43.5t1 -63.5
t2.5 -101.5q241 229 461 262q49 9 102 5t104.5 -20t98 -44t82 -66t56.5 -86t23 -104q4 -55 -7.5 -108t-33 -100t-48.5 -87t-54 -68l-1 -2l-2 -2q-14 -13 -28 -24.5t-28 -22.5l346 -2h8q42 0 70 -28t28 -70q0 -41 -28 -69.5t-70 -28.5h-919zM1446 1355l-163 -163l-164 164
l163 163z" />
    <glyph glyph-name="uni063A" unicode="&#x63a;" horiz-adv-x="1548" arabic-form="isolated" 
d="M838 -705q-74 0 -151 12t-151.5 39t-144.5 71.5t-130 109.5q-81 88 -117 202.5t-28 245.5q5 101 41.5 192.5t102.5 176.5q112 141 291 231q21 12 42.5 21.5t44.5 19.5l-6 4q-136 94 -152 265q-10 90 15 171.5t84 148.5q63 72 147 113t178 45q155 7 315 -96
q56 -37 88.5 -67.5t37.5 -33.5l-144 -137q-41 40 -88 71q-40 26 -92 47t-107 19q-54 -3 -102.5 -25.5t-82.5 -64.5q-21 -25 -39.5 -67t-13.5 -105q8 -80 68 -122q50 -33 135.5 -50t197.5 -1q46 6 87.5 12.5t73.5 11.5q37 6 69 12l42 -192q-2 0 -21.5 -3.5t-54 -9t-81 -13.5
t-101.5 -17q-87 -14 -151.5 -28.5t-116 -30t-94.5 -34t-88 -40.5q-24 -11 -56 -30.5t-67.5 -47t-70.5 -63.5t-63.5 -80.5t-47.5 -98t-23 -116.5q-7 -121 40 -210.5t129.5 -147.5t190.5 -83t223.5 -17t228 49t204.5 117l115 -166q-82 -68 -161 -109t-155 -63.5t-148.5 -30
t-141.5 -7.5zM1022 1725l-163 -163l-164 164l163 163z" />
    <glyph glyph-name="uniFECF" unicode="&#x63a;" horiz-adv-x="1127" arabic-form="initial" 
d="M876 604q-34 37 -79 67q-38 26 -92 47t-122 21q-58 0 -102 -19.5t-73.5 -52.5t-44.5 -75.5t-15 -88.5q0 -63 28 -114t74.5 -87t107.5 -54t128 -14q60 4 114 10.5t96 14.5q49 8 92 18l24 -190q-56 -15 -127.5 -30t-167 -27t-218 -20t-281.5 -8l-218 -2q-42 0 -71 28
t-29 70t29 70t71 28l284 3q-73 66 -102.5 140.5t-29.5 163.5q0 88 32.5 166.5t90.5 137.5t136.5 93.5t171.5 34.5q46 0 89 -7.5t81 -20.5t71 -29t60 -33q64 -40 115 -90zM725 1336l-163 -163l-164 164l163 163z" />
    <glyph glyph-name="uniFED0" unicode="&#x63a;" horiz-adv-x="1144" arabic-form="medial" 
d="M1138 196q20 0 38 -8t31.5 -21.5t21.5 -31.5t8 -39q0 -41 -29 -69t-70 -28q-160 0 -297 29t-247 94q-63 -30 -137.5 -53t-153 -39t-158 -23.5t-152.5 -7.5q-41 0 -70 28t-29 69q0 21 8 39t21.5 31.5t31.5 21.5t38 8q51 0 108.5 4.5t113.5 12.5t106 19.5t87 26.5
q-39 36 -79 79t-81 90.5t-82 97.5t-83 98l10 139q51 46 106.5 77t109.5 50.5t105 30t93 14.5q102 11 198.5 -2t177.5 -47q53 -24 86 -51.5t51 -55.5t24.5 -52.5t6.5 -42.5q6 -47 -16.5 -106t-61.5 -119t-90 -116t-103 -95q68 -26 162 -39t196 -13zM596 357q28 15 58 39.5
t58.5 54t54 61.5t44.5 62.5t30.5 56t11.5 42.5q-52 34 -120 52t-142 18t-149 -18t-139 -55q83 -101 152 -178t141 -135zM761 1318l-163 -163l-164 164l163 163z" />
    <glyph glyph-name="uniFECE" unicode="&#x63a;" horiz-adv-x="1351" arabic-form="final" 
d="M662 -587q60 -9 135.5 -9t155 13t156.5 41t139 73l102 -170q-73 -44 -135 -73.5t-124 -47.5t-129 -25.5t-150 -7.5q-92 0 -187.5 16.5t-183.5 54t-163.5 98.5t-127.5 150q-33 55 -48 124t-14 140.5t17 140t45 122.5q31 55 75.5 104.5t97 91t111.5 75t118 57.5
q-75 68 -135 130.5t-102 108.5l-26 30l-12 122q32 49 78 84.5t95.5 60.5t97.5 40.5t84 24.5q55 12 111 18.5t109.5 6t103 -8t91.5 -21.5q105 -32 160 -97t52 -153q-4 -173 -156 -293q-75 -59 -166 -101q97 -59 200 -98t211 -39q20 0 38 -8.5t31 -22t20.5 -31t7.5 -37.5
q0 -42 -28 -69.5t-69 -28.5q-82 0 -161 17.5t-156.5 49.5t-154 76.5t-153.5 98.5q-77 -30 -155 -70t-141 -94t-103 -123.5t-40 -159.5q0 -50 18 -96.5t48.5 -87t69.5 -74.5t81 -59.5t83.5 -42t77.5 -21.5zM497 716q50 -52 113.5 -117t142.5 -131q74 31 131 60t96 60.5
t59 66.5t22 77q0 10 -6.5 19t-17 16.5t-23.5 13t-25 9.5q-56 17 -123 19t-134.5 -9t-129 -32.5t-105.5 -51.5zM916 1341l-163 -163l-164 164l163 163z" />
    <glyph glyph-name="uniFB90" unicode="&#x6a9;" horiz-adv-x="1023" arabic-form="initial" 
d="M-108 97q0 42 30 70.5t78 28.5h105q60 0 125 1.5t124.5 12t108 33t76.5 64.5q33 50 38.5 109t-12.5 128q-11 41 -54.5 104.5t-107.5 136t-143 148.5t-161 142l23 205l822 352l77 -182l-716 -301q49 -42 107 -94t115 -115q76 -84 125 -160.5t76 -145.5t36 -130.5t4 -115.5
t-20.5 -100t-36.5 -84q-89 -158 -301 -197q-38 -7 -87 -7h-323q-48 0 -78 28t-30 69z" />
    <glyph glyph-name="uniFB91" unicode="&#x6a9;" horiz-adv-x="1209" arabic-form="medial" 
d="M-98 98q0 20 8 38t21.5 31.5t31.5 21t38 7.5h9h330q40 0 80.5 16t73 43t54 61.5t24.5 70.5q5 57 -14.5 119.5t-55.5 126.5t-84 127t-100.5 119.5t-105.5 104t-98 82.5l26 221l884 381l77 -182l-793 -333q76 -61 133.5 -122.5t103.5 -123.5t82.5 -124t70 -124t66.5 -125
t71 -127q29 -48 62 -86.5t71.5 -65.5t85 -42.5t102.5 -16.5h42q42 0 70 -28.5t28 -69.5q0 -42 -28 -70t-70 -28h-8q-72 0 -126.5 9t-106.5 26q-71 26 -131 76t-105 108q-35 -64 -86 -112q-33 -29 -69.5 -49t-76 -32t-80.5 -18t-82 -8h-326q-41 0 -70 28t-29 70z" />
    <glyph glyph-name="uni0641" unicode="&#x641;" horiz-adv-x="1997" arabic-form="isolated" 
d="M1714 1013q46 -50 84 -124t60.5 -161.5t26 -183.5t-19.5 -192q-3 -14 -11 -37t-26.5 -51.5t-49.5 -60.5t-80 -62q-55 -35 -135.5 -61.5t-177.5 -44t-206.5 -26t-223.5 -8.5q-606 0 -784 304q-40 67 -54.5 136.5t-12 135t16 124.5t29 103.5t29 72t14.5 31.5l174 -95
q0 -1 -9 -19.5t-20 -50t-21.5 -72.5t-13.5 -86.5t5 -92t34 -88.5q30 -50 79.5 -88.5t121 -65t166.5 -41.5t217 -18q144 -4 248.5 4t179.5 23t125.5 34.5t85.5 38.5q33 17 53.5 33.5t32.5 30.5h-51h-48.5t-50.5 3q-199 12 -294 131q-15 18 -29 43.5t-22.5 59t-10.5 75t6 91.5
q11 64 37 130.5t66.5 120.5t95.5 88.5t124 34.5q133 0 240 -119zM1514 555q104 -6 173 0q-9 50 -22.5 111t-37 116.5t-60.5 98t-93 54.5q-16 3 -36.5 -12t-39.5 -42.5t-35 -63t-23 -72.5t-3 -72.5t25 -61.5q18 -24 58 -38.5t94 -17.5zM1646 1465l-163 -163l-164 164l163 163
z" />
    <glyph glyph-name="uniFED3" unicode="&#x641;" horiz-adv-x="947" arabic-form="initial" 
d="M428 927q-14 0 -33 -13.5t-37.5 -40.5t-34.5 -66t-24 -90q-14 -75 17 -112q20 -24 58.5 -39t92.5 -18q51 -2 95.5 -2t77.5 2q-7 97 -37.5 183.5t-81.5 142.5q-16 18 -40.5 35.5t-52.5 17.5zM-101 98q0 42 29 70t71 28q111 0 204.5 10.5t167 27t124.5 37t75 39.5
q13 11 21 20l16 18h-101q-54 0 -105 8.5t-96 25.5t-82 42.5t-63 58.5q-14 18 -28 43.5t-23 59t-11 75t6 91.5q14 77 41 140.5t66 113.5q45 59 101 89t116 30q132 0 240 -117q46 -51 81.5 -118t57.5 -143.5t30 -158.5t-1 -162h-1q-6 -40 -17 -81q-3 -12 -9 -32.5t-20 -46
t-37.5 -54t-59.5 -56.5q-48 -38 -121.5 -67t-162.5 -48.5t-190 -29.5t-204 -11h-17q-41 0 -69.5 28.5t-28.5 69.5zM560 1470l-163 -163l-164 164l163 163z" />
    <glyph glyph-name="uniFED4" unicode="&#x641;" horiz-adv-x="1072" arabic-form="medial" 
d="M531 741q-27 0 -58.5 -19.5t-58.5 -55t-44.5 -85.5t-17.5 -112q0 -47 44.5 -92.5t127.5 -83.5l16 -7q59 26 90 70.5t41 95t2 102t-28.5 93t-50.5 68t-63 26.5zM-102 98q0 21 7.5 39t21 31t31 20.5t38.5 7.5q35 0 75.5 1t79.5 3t74.5 5t60.5 6q-130 114 -130 258
q0 93 28.5 177t82.5 152t123.5 105.5t142.5 34.5q89 -4 156 -42t111.5 -98t65.5 -135.5t17.5 -154t-32 -154t-82.5 -134.5q30 -6 66 -10.5t74 -7.5t76 -4.5t71 -1.5q42 0 70.5 -28t28.5 -70q0 -21 -7.5 -38.5t-21 -31t-31.5 -21t-39 -7.5h-9q-31 0 -67 1t-73 3.5t-72 5.5
t-64 8q-60 10 -115.5 23t-108.5 30q-47 -18 -109 -31t-133 -22t-148 -13.5t-153 -4.5h-8q-42 0 -70 28t-28 70zM713 1346l-163 -163l-164 164l163 163z" />
    <glyph glyph-name="uniFED2" unicode="&#x641;" horiz-adv-x="2150" arabic-form="final" 
d="M1917 242q-7 -5 -11 -11t-9 -11q61 -11 123 -17.5t128 -6.5q41 0 70 -28t29 -70q0 -20 -8 -38t-21.5 -31.5t-31.5 -21t-38 -7.5q-129 0 -248.5 18.5t-222.5 53.5q-16 -5 -29.5 -10t-29.5 -10q-49 -18 -118 -32t-150 -23.5t-170 -14t-179 -4.5q-306 1 -507.5 76.5
t-291.5 228.5q-40 67 -54.5 136.5t-12.5 135t15.5 124.5t29.5 103.5t29 72t15 31.5l174 -95q0 -1 -9 -19.5t-20.5 -50t-22 -72.5t-13 -86t5 -92t33.5 -89q30 -50 77.5 -88t117 -63.5t163 -39.5t215.5 -17q93 -3 164.5 -1.5t127.5 6t101 11.5t84 15q-137 113 -137 264
q0 93 28.5 176.5t82.5 151.5q54 67 122.5 104t144.5 37q68 0 127.5 -24.5t105.5 -74.5q18 -19 37 -46t34.5 -64t25 -85t9.5 -108q0 -175 -85 -294zM1669 286q43 25 69.5 54t41 61t19 66t4.5 69q0 72 -17.5 112.5t-40.5 60.5t-46.5 25t-35.5 5q-28 0 -59.5 -19t-58 -54
t-44 -85t-17.5 -112q0 -46 43.5 -92t128.5 -84zM1825 1335l-163 -163l-164 164l163 163z" />
    <glyph glyph-name="uniFB6A" unicode="&#x6a4;" horiz-adv-x="1975" arabic-form="isolated" 
d="M1714 1013q46 -50 84 -124t60.5 -161.5t26 -183.5t-19.5 -192q-3 -14 -11 -37t-26.5 -51.5t-49.5 -60.5t-80 -62q-55 -35 -135.5 -61.5t-177.5 -44t-206.5 -26t-223.5 -8.5q-606 0 -784 304q-40 67 -54.5 136.5t-12 135t16 124.5t29 103.5t29 72t14.5 31.5l174 -95
q0 -1 -9 -19.5t-20 -50t-21.5 -72.5t-13.5 -86.5t5 -92t34 -88.5q30 -50 79.5 -88.5t121 -65t166.5 -41.5t217 -18q144 -4 248.5 4t179.5 23t125.5 34.5t85.5 38.5q33 17 53.5 33.5t32.5 30.5h-51h-48.5t-50.5 3q-199 12 -294 131q-15 18 -29 43.5t-22.5 59t-10.5 75t6 91.5
q11 64 37 130.5t66.5 120.5t95.5 88.5t124 34.5q133 0 240 -119zM1514 555q104 -6 173 0q-9 50 -22.5 111t-37 116.5t-60.5 98t-93 54.5q-16 3 -36.5 -12t-39.5 -42.5t-35 -63t-23 -72.5t-3 -72.5t25 -61.5q18 -24 58 -38.5t94 -17.5zM1498 1487l162 162l164 -164l-162 -162
zM1059 1488l162 163l164 -164l-162 -163zM1300 1789l148 148l149 -149l-148 -148z" />
    <glyph glyph-name="uniFB6C" unicode="&#x6a4;" horiz-adv-x="936" arabic-form="initial" 
d="M428 927q-14 0 -33 -13.5t-37.5 -40.5t-34.5 -66t-24 -90q-14 -75 17 -112q20 -24 58.5 -39t92.5 -18q51 -2 95.5 -2t77.5 2q-7 97 -37.5 183.5t-81.5 142.5q-16 18 -40.5 35.5t-52.5 17.5zM-101 98q0 42 29 70t71 28q111 0 204.5 10.5t167 27t124.5 37t75 39.5
q13 11 21 20l16 18h-101q-54 0 -105 8.5t-96 25.5t-82 42.5t-63 58.5q-14 18 -28 43.5t-23 59t-11 75t6 91.5q14 77 41 140.5t66 113.5q45 59 101 89t116 30q132 0 240 -117q46 -51 81.5 -118t57.5 -143.5t30 -158.5t-1 -162h-1q-6 -40 -17 -81q-3 -12 -9 -32.5t-20 -46
t-37.5 -54t-59.5 -56.5q-48 -38 -121.5 -67t-162.5 -48.5t-190 -29.5t-204 -11h-17q-41 0 -69.5 28.5t-28.5 69.5zM482 1437l162 162l164 -164l-162 -162zM43 1438l162 163l164 -164l-162 -163zM284 1739l148 148l149 -149l-148 -148z" />
    <glyph glyph-name="uniFB6D" unicode="&#x6a4;" horiz-adv-x="1078" arabic-form="medial" 
d="M546 741q-27 0 -58.5 -19.5t-58.5 -55t-44.5 -85.5t-17.5 -112q0 -47 44.5 -92.5t127.5 -83.5l16 -7q59 26 90 70.5t41 95t2 102t-28.5 93t-50.5 68t-63 26.5zM-87 98q0 21 7.5 39t21 31t31 20.5t38.5 7.5q35 0 75.5 1t79.5 3t74.5 5t60.5 6q-130 114 -130 258
q0 93 28.5 177t82.5 152t123.5 105.5t142.5 34.5q89 -4 156 -42t111.5 -98t65.5 -135.5t17.5 -154t-32 -154t-82.5 -134.5q30 -6 66 -10.5t74 -7.5t76 -4.5t71 -1.5q42 0 70.5 -28t28.5 -70q0 -21 -7.5 -38.5t-21 -31t-31.5 -21t-39 -7.5h-9q-31 0 -67 1t-73 3.5t-72 5.5
t-64 8q-60 10 -115.5 23t-108.5 30q-47 -18 -109 -31t-133 -22t-148 -13.5t-153 -4.5h-8q-42 0 -70 28t-28 70zM567 1261l162 162l164 -164l-162 -162zM128 1262l162 163l164 -164l-162 -163zM369 1563l148 148l149 -149l-148 -148z" />
    <glyph glyph-name="uniFB6B" unicode="&#x6a4;" horiz-adv-x="2150" arabic-form="final" 
d="M1921 242q-7 -5 -11 -11t-9 -11q61 -11 123 -17.5t128 -6.5q41 0 70 -28t29 -70q0 -20 -8 -38t-21.5 -31.5t-31.5 -21t-38 -7.5q-129 0 -248.5 18.5t-222.5 53.5q-16 -5 -29.5 -10t-29.5 -10q-49 -18 -118 -32t-150 -23.5t-170 -14t-179 -4.5q-306 1 -507.5 76.5
t-291.5 228.5q-40 67 -54.5 136.5t-12.5 135t15.5 124.5t29.5 103.5t29 72t15 31.5l174 -95q0 -1 -9 -19.5t-20.5 -50t-22 -72.5t-13 -86t5 -92t33.5 -89q30 -50 77.5 -88t117 -63.5t163 -39.5t215.5 -17q93 -3 164.5 -1.5t127.5 6t101 11.5t84 15q-137 113 -137 264
q0 93 28.5 176.5t82.5 151.5q54 67 122.5 104t144.5 37q68 0 127.5 -24.5t105.5 -74.5q18 -19 37 -46t34.5 -64t25 -85t9.5 -108q0 -175 -85 -294zM1673 286q43 25 69.5 54t41 61t19 66t4.5 69q0 72 -17.5 112.5t-40.5 60.5t-46.5 25t-35.5 5q-28 0 -59.5 -19t-58 -54
t-44 -85t-17.5 -112q0 -46 43.5 -92t128.5 -84zM1684 1274l162 162l164 -164l-162 -162zM1245 1275l162 163l164 -164l-162 -163zM1486 1576l148 148l149 -149l-148 -148z" />
    <glyph glyph-name="uniFED7" unicode="&#x642;" horiz-adv-x="908" arabic-form="initial" 
d="M428 927q-14 0 -33 -13.5t-37.5 -40.5t-34.5 -66t-24 -90q-14 -75 17 -112q20 -24 58.5 -39t92.5 -18q51 -2 95.5 -2t77.5 2q-7 97 -37.5 183.5t-81.5 142.5q-16 18 -40.5 35.5t-52.5 17.5zM-101 98q0 42 29 70t71 28q111 0 204.5 10.5t167 27t124.5 37t75 39.5
q13 11 21 20l16 18h-101q-54 0 -105 8.5t-96 25.5t-82 42.5t-63 58.5q-14 18 -28 43.5t-23 59t-11 75t6 91.5q14 77 41 140.5t66 113.5q45 59 101 89t116 30q132 0 240 -117q46 -51 81.5 -118t57.5 -143.5t30 -158.5t-1 -162h-1q-6 -40 -17 -81q-3 -12 -9 -32.5t-20 -46
t-37.5 -54t-59.5 -56.5q-48 -38 -121.5 -67t-162.5 -48.5t-190 -29.5t-204 -11h-17q-41 0 -69.5 28.5t-28.5 69.5zM365 1481l-162 -162l-164 163l162 163zM775 1480l-162 -163l-164 164l162 162z" />
    <glyph glyph-name="uniFED8" unicode="&#x642;" horiz-adv-x="1062" arabic-form="medial" 
d="M534 741q-27 0 -58.5 -19.5t-58.5 -55t-44.5 -85.5t-17.5 -112q0 -47 44.5 -92.5t127.5 -83.5l16 -7q59 26 90 70.5t41 95t2 102t-28.5 93t-50.5 68t-63 26.5zM-99 98q0 21 7.5 39t21 31t31 20.5t38.5 7.5q35 0 75.5 1t79.5 3t74.5 5t60.5 6q-130 114 -130 258
q0 93 28.5 177t82.5 152t123.5 105.5t142.5 34.5q89 -4 156 -42t111.5 -98t65.5 -135.5t17.5 -154t-32 -154t-82.5 -134.5q30 -6 66 -10.5t74 -7.5t76 -4.5t71 -1.5q42 0 70.5 -28t28.5 -70q0 -21 -7.5 -38.5t-21 -31t-31.5 -21t-39 -7.5h-9q-31 0 -67 1t-73 3.5t-72 5.5
t-64 8q-60 10 -115.5 23t-108.5 30q-47 -18 -109 -31t-133 -22t-148 -13.5t-153 -4.5h-8q-42 0 -70 28t-28 70zM486 1329l-162 -162l-164 163l162 163zM896 1328l-162 -163l-164 164l162 162z" />
    <glyph glyph-name="uni0642" unicode="&#x642;" horiz-adv-x="1592" arabic-form="isolated" 
d="M1171 -1q-26 0 -53.5 1t-55.5 3q-109 8 -191 43t-131 100q-92 118 -61 291q14 85 43.5 154.5t73.5 125.5q49 63 109 96t124 33q72 0 136.5 -32.5t124.5 -96.5q50 -56 88 -129t62 -156.5t33 -173t0 -179.5h2q0 -2 -2.5 -33.5t-12.5 -81t-29.5 -111.5t-53.5 -126
q-41 -79 -95.5 -141.5t-120.5 -107.5q-84 -59 -182 -87t-214 -28h-2q-197 0 -345 76q-78 39 -139 94.5t-102 127.5q-52 85 -74.5 186t-13.5 215q8 117 47 238t107 249l175 -94q-55 -102 -87.5 -199.5t-42 -186t4.5 -166t52 -141.5q59 -98 167 -149.5t251 -51.5h2
q103 -8 187 26.5t148 96t106 144t60 172.5q-22 0 -45.5 -0.5t-49.5 -0.5zM1029 647q-36 0 -78 -52q-29 -35 -47.5 -83.5t-29.5 -108.5q-15 -90 21 -135q15 -20 38 -32t48.5 -19.5t50 -11t42.5 -5.5q63 -4 115.5 -3.5t90.5 3.5q-3 64 -15 121t-30.5 106t-42 88.5t-48.5 68.5
q-21 22 -50.5 42.5t-64.5 20.5zM963 1173l-162 -162l-164 163l162 163zM1373 1172l-162 -163l-164 164l162 162z" />
    <glyph glyph-name="uniFED6" unicode="&#x642;" horiz-adv-x="1617" arabic-form="final" 
d="M1063 648q-36 0 -78 -53q-29 -35 -47.5 -83t-29.5 -107q-15 -92 21 -136q15 -20 37.5 -32.5t47.5 -20t49.5 -11t42.5 -5.5q63 -3 114.5 -4t93.5 0q-3 64 -15 121.5t-31 107t-42.5 90t-49.5 70.5q-20 21 -49 42t-64 21zM1273 -3q-38 0 -83 1.5t-96 4.5q-109 8 -189.5 44
t-131.5 99q-91 119 -60 292q14 84 43.5 154.5t72.5 124.5q50 63 109 96t125 33q143 0 260 -129q43 -47 76.5 -105.5t57.5 -125.5t37.5 -140t16.5 -149q20 -1 45 -1h56q41 0 70 -28t29 -70q0 -20 -8 -38t-21.5 -31.5t-31.5 -21t-38 -7.5h-9h-105q-8 -51 -28.5 -122.5
t-59.5 -148.5q-81 -157 -214 -251q-167 -115 -398 -115q-197 0 -348 77q-155 77 -241 221q-51 85 -73 186t-14 215q8 116 46.5 237t107.5 251l175 -93q-111 -208 -129.5 -386.5t56.5 -306.5q60 -99 167 -150.5t253 -51.5q301 0 433 252q26 50 42 97.5t24 85.5h-24z
M1012 1158l-162 -162l-164 163l162 163zM1422 1157l-162 -163l-164 164l162 162z" />
    <glyph glyph-name="uniFEE7" unicode="&#x646;" horiz-adv-x="706" arabic-form="initial" 
d="M-105 98q0 42 28.5 70t69.5 28h103q53 -2 102 0.5t90 14.5t72.5 36.5t51.5 66.5q20 43 11.5 122.5t-40.5 185.5q-11 32 -25.5 69.5t-28.5 69.5q-16 38 -33 75l178 88q0 -1 9.5 -20.5t23.5 -52.5t31 -76.5t32 -92.5q93 -287 23 -448q-71 -161 -252 -212
q-54 -16 -105.5 -19t-96.5 -3h-137h-9q-41 0 -69.5 28t-28.5 70zM493 1248l-163 -163l-164 164l163 163z" />
    <glyph glyph-name="uniFEE8" unicode="&#x646;" horiz-adv-x="705" arabic-form="medial" 
d="M-94 98q0 41 28 69.5t70 28.5h17q168 0 244 60.5t76 179.5q0 28 -2 56.5t-6.5 59t-12 64t-18.5 71.5l188 53q10 -35 17 -67.5t12.5 -68.5t9.5 -78t8 -95q3 -37 10 -78t25 -76t49.5 -58t82.5 -23q20 0 38 -7.5t31.5 -21t21.5 -31.5t8 -38q0 -21 -8 -38.5t-21.5 -31
t-31 -21t-37.5 -7.5q-50 0 -91.5 9t-75 25.5t-60 39.5t-47.5 50q-63 -62 -163.5 -93t-246.5 -31h-17q-42 0 -70 28t-28 70zM547 1149l-163 -163l-164 164l163 163z" />
    <glyph glyph-name="uni0646" unicode="&#x646;" horiz-adv-x="1620" arabic-form="isolated" 
d="M741 -688q-265 0 -433 150q-79 69 -127.5 162t-64.5 204q-10 61 -9 122.5t8 118.5t19 107.5t24 90.5q31 102 67.5 174.5t60.5 107.5l159 -117q-13 -18 -30 -51.5t-34.5 -78t-33.5 -98.5t-26.5 -112.5t-13.5 -118.5t5 -117q4 -26 16 -61t34.5 -72t57 -73.5t84 -66t115 -49
t151.5 -23.5q5 0 4 -0.5t-3 -0.5h-3t4 1q212 9 342 84t176 214q26 86 27.5 173t-12 167t-37 149.5t-46.5 121t-40 81t-18 29.5l166 106q3 -5 25 -42t50 -99.5t56 -146t43 -180.5t11.5 -204t-38.5 -215q-29 -94 -86 -169.5t-141 -130.5q-91 -63 -208 -96t-262 -40
q-10 0 -20 -0.5t-19 -0.5zM982 641l-163 -163l-164 164l163 163z" />
    <glyph glyph-name="uniFEE6" unicode="&#x646;" horiz-adv-x="1751" arabic-form="final" 
d="M1749 0q-133 0 -239 62q4 -76 -4.5 -154.5t-33.5 -159.5q-29 -92 -86 -168.5t-141 -130.5q-92 -63 -208 -95.5t-261 -40.5h-41q-131 0 -239 38t-193 110q-77 69 -126.5 163t-65.5 204q-8 61 -7.5 122t7.5 118t18 108t24 92q32 102 67 173.5t60 107.5l160 -116
q-13 -17 -30.5 -51t-35 -79t-33.5 -98.5t-26.5 -112t-13.5 -119t6 -117.5q4 -26 14 -62t29 -74.5t49.5 -76.5t76.5 -67.5t109.5 -48t148.5 -18.5h15h9.5t9.5 1q211 11 341 85.5t174 212.5q27 87 28.5 173t-11.5 164.5t-36 146.5t-46 121q-11 20 -20 41t-20 43q-8 16 -14 24
t-6 10l167 106q3 -4 22.5 -40t48.5 -96q55 -104 103.5 -165t92.5 -92t83 -39.5t74 -8.5q42 0 70.5 -28t28.5 -70q0 -41 -28.5 -69.5t-70.5 -28.5zM975 574l-163 -163l-164 164l163 163z" />
    <glyph glyph-name="uni06C0" unicode="&#x6c0;" horiz-adv-x="983" arabic-form="isolated" 
d="M485 0q-5 0 -24.5 1t-48.5 5.5t-65.5 14t-73.5 27.5q-95 44 -144.5 120t-49.5 179q0 180 163 377q33 39 63.5 70t53.5 52q-30 27 -48 42t-18 16l126 153q1 -2 21.5 -19t52.5 -47t73 -70.5t84 -88.5q122 -139 182.5 -260.5t60.5 -224.5t-45.5 -179t-133.5 -119
q-32 -16 -65 -25.5t-63 -15t-56.5 -7t-44.5 -1.5zM497 704q-29 -26 -67.5 -66t-72.5 -88t-57.5 -100.5t-23.5 -102.5q0 -15 2.5 -31t11 -31.5t24.5 -30.5t43 -27q19 -9 39 -14.5t37 -8.5t31 -4t21 -1q9 0 25.5 0.5t36 3t40 8t39.5 14.5q37 20 53.5 48.5t16.5 73.5
q0 65 -50 156t-145 197q-1 1 -1.5 2t-2.5 2zM525 1556q-12 3 -27 6q-13 2 -29.5 4.5t-35.5 2.5q-15 0 -30.5 -2.5t-31.5 -9.5v2q-32 -14 -51.5 -42.5t-19.5 -61.5q0 -17 8 -36l-1 1q14 -35 49.5 -58.5t78.5 -23.5q11 0 21 1t21 6q26 8 51 21t45 25q23 14 43 29l59 -78
q-39 -29 -98 -62t-144 -80l-227 -126l-48 87l179 100q-41 17 -72.5 49t-48.5 71q-14 34 -14 74q0 31 9.5 60.5t27 55t42 45.5t54.5 32q47 19 98 19q23 0 44 -3t38 -7q19 -4 38 -9z" />
    <glyph glyph-name="uniFBA5" unicode="&#x6c0;" horiz-adv-x="1090" arabic-form="final" 
d="M642 702q-24 -10 -57 -24.5t-68.5 -33t-70 -41t-62 -48t-44.5 -55t-17 -61.5q0 -33 20.5 -53.5t53 -32t73.5 -15.5t82.5 -3.5t79 4.5t63.5 9q-12 58 -24.5 142t-28.5 212zM544 140q-258 0 -359 125q-28 34 -39.5 72.5t-13 75.5t4.5 69t15 53q27 56 64.5 103t80 84.5
t88 67t88 51.5t80.5 38t66 26q-8 76 -11.5 111.5t-3.5 36.5l196 41v1q1 -9 4 -37t7 -66.5t8.5 -82t8.5 -81.5t7 -66t4 -35q15 -129 28 -211t23 -130.5t16.5 -69.5t9.5 -27q12 -27 27.5 -45t36.5 -28.5t48 -15t62 -4.5q41 0 70 -28t29 -70q0 -20 -8 -38t-21.5 -31.5
t-31.5 -21t-38 -7.5q-38 0 -90.5 6.5t-104.5 30.5q-80 38 -132 122q-62 -10 -116 -14.5t-103 -4.5zM674 1548q-12 3 -27 6q-13 2 -29.5 4.5t-35.5 2.5q-15 0 -30.5 -2.5t-31.5 -9.5v2q-32 -14 -51.5 -42.5t-19.5 -61.5q0 -17 8 -36l-1 1q14 -35 49.5 -58.5t78.5 -23.5
q11 0 21 1t21 6q26 8 51 21t45 25q23 14 43 29l59 -78q-39 -29 -98 -62t-144 -80l-227 -126l-48 87l179 100q-41 17 -72.5 49t-48.5 71q-14 34 -14 74q0 31 9.5 60.5t27 55t42 45.5t54.5 32q47 19 98 19q23 0 44 -3t38 -7q19 -4 38 -9z" />
    <glyph glyph-name="uni0624" unicode="&#x624;" horiz-adv-x="1056" arabic-form="isolated" 
d="M518 650q-29 0 -55 -22.5t-46.5 -57.5t-34.5 -78.5t-19.5 -86t-0.5 -79t22 -57.5q15 -20 38 -32.5t48 -20t49.5 -11t42.5 -4.5q63 -4 115.5 -3t91.5 4q-3 63 -15 120.5t-30.5 106.5t-42.5 88.5t-49 68.5q-10 10 -22.5 21.5t-27 21t-31 15.5t-33.5 6zM77 -509
q154 31 276 86t209 124t137.5 146.5t61.5 152.5q-42 -1 -99.5 -0.5t-112.5 5.5q-217 14 -321 142q-46 58 -58.5 134t-1 155.5t42.5 154t73 128.5q50 63 110 95.5t124 32.5q142 0 261 -128q51 -56 89.5 -129.5t62.5 -157.5t32.5 -175t-0.5 -182q-11 -110 -49 -205.5
t-97 -176.5t-136.5 -147t-167 -115.5t-188.5 -83t-202 -49.5zM502 1338q-12 3 -27 6q-13 2 -29.5 4.5t-35.5 2.5q-15 0 -30.5 -2.5t-31.5 -9.5v2q-32 -14 -51.5 -42.5t-19.5 -61.5q0 -17 8 -36l-1 1q14 -35 49.5 -58.5t78.5 -23.5q11 0 21 1t21 6q26 8 51 21t45 25
q23 14 43 29l59 -78q-39 -29 -98 -62t-144 -80l-227 -126l-48 87l179 100q-41 17 -72.5 49t-48.5 71q-14 34 -14 74q0 31 9.5 60.5t27 55t42 45.5t54.5 32q47 19 98 19q23 0 44 -3t38 -7q19 -4 38 -9z" />
    <glyph glyph-name="uniFE86" unicode="&#x624;" horiz-adv-x="1058" arabic-form="final" 
d="M78 -509q154 31 276 86t209 124t137.5 146.5t61.5 152.5q-42 -1 -99.5 -0.5t-112.5 5.5q-217 14 -321 142q-46 58 -58.5 134t-1 155.5t42.5 154t73 128.5q50 63 110 95.5t124 32.5q142 0 261 -128q42 -47 76 -106t58 -126.5t38 -141t16 -149.5h75q21 0 39 -7.5t31.5 -21
t21.5 -31.5t8 -39q0 -20 -8 -37.5t-21.5 -31t-31.5 -21t-39 -7.5h-90q-30 -148 -108.5 -267.5t-190 -208.5t-248.5 -146t-282 -80zM519 650q-29 0 -55 -22.5t-46.5 -57.5t-34.5 -78.5t-19.5 -86t-0.5 -79t22 -57.5q15 -20 38 -32.5t48 -20t49.5 -11t42.5 -4.5
q63 -4 115.5 -3t91.5 4q-3 63 -15 120.5t-30.5 106.5t-42.5 88.5t-49 68.5q-10 10 -22.5 21.5t-27 21t-31 15.5t-33.5 6zM562 1374q-12 3 -27 6q-13 2 -29.5 4.5t-35.5 2.5q-15 0 -30.5 -2.5t-31.5 -9.5v2q-32 -14 -51.5 -42.5t-19.5 -61.5q0 -17 8 -36l-1 1
q14 -35 49.5 -58.5t78.5 -23.5q11 0 21 1t21 6q26 8 51 21t45 25q23 14 43 29l59 -78q-39 -29 -98 -62t-144 -80l-227 -126l-48 87l179 100q-41 17 -72.5 49t-48.5 71q-14 34 -14 74q0 31 9.5 60.5t27 55t42 45.5t54.5 32q47 19 98 19q23 0 44 -3t38 -7q19 -4 38 -9z" />
    <glyph glyph-name="uniFBE8" unicode="&#x649;" horiz-adv-x="708" arabic-form="initial" 
d="M-105 98q0 42 28.5 70t69.5 28h103q53 -2 102 0.5t90 14.5t72.5 36.5t51.5 66.5q20 43 11.5 122.5t-40.5 185.5q-11 32 -25.5 69.5t-28.5 69.5q-16 38 -33 75l178 88q0 -1 9.5 -20.5t23.5 -52.5t31 -76.5t32 -92.5q93 -287 23 -448q-71 -161 -252 -212
q-54 -16 -105.5 -19t-96.5 -3h-137h-9q-41 0 -69.5 28t-28.5 70z" />
    <glyph glyph-name="uniFBE9" unicode="&#x649;" horiz-adv-x="705" arabic-form="medial" 
d="M-94 98q0 41 28 69.5t70 28.5h17q168 0 244 60.5t76 179.5q0 28 -2 56.5t-6.5 59t-12 64t-18.5 71.5l188 53q10 -35 17 -67.5t12.5 -68.5t9.5 -78t8 -95q3 -37 10 -78t25 -76t49.5 -58t82.5 -23q20 0 38 -7.5t31.5 -21t21.5 -31.5t8 -38q0 -21 -8 -38.5t-21.5 -31
t-31 -21t-37.5 -7.5q-50 0 -91.5 9t-75 25.5t-60 39.5t-47.5 50q-63 -62 -163.5 -93t-246.5 -31h-17q-42 0 -70 28t-28 70z" />
    <glyph glyph-name="uniFEF3" unicode="&#x64a;" horiz-adv-x="882" arabic-form="initial" 
d="M364 -346l-162 -162l-164 163l162 163zM774 -347l-162 -163l-164 164l162 162zM-95 98q0 42 28.5 70t69.5 28h111q35 -1 76 -0.5t83 4.5t82.5 11.5t74.5 21t60 33.5t39 48q20 43 11.5 122.5t-40.5 185.5q-11 32 -25.5 69.5t-28.5 69.5q-16 38 -33 75l178 88
q0 -1 9.5 -20.5t23.5 -52.5t31 -76.5t32 -92.5q93 -287 23 -448q-71 -161 -252 -212q-27 -8 -69 -12.5t-86 -6.5t-84 -2.5t-62 -0.5h-145h-9q-41 0 -69.5 28t-28.5 70z" />
    <glyph glyph-name="uniFEF4" unicode="&#x64a;" horiz-adv-x="854" arabic-form="medial" 
d="M-105 98q0 42 28 70.5t70 28.5h76q84 0 161 10t135.5 37t92.5 73.5t31 119.5q-2 56 -9.5 116t-29.5 137l187 53q9 -35 17 -73.5t14 -78.5t10.5 -80.5t6.5 -79.5q2 -37 9 -78t25 -76t49.5 -58t82.5 -23q42 0 71 -28t29 -70q0 -21 -8 -38.5t-21.5 -31t-31 -21t-37.5 -7.5
q-101 0 -167 36.5t-108 91.5q-36 -35 -93 -59.5t-125.5 -39.5t-143.5 -22t-147 -7h-76q-42 0 -70 28t-28 70zM303 -380l-162 -162l-164 163l162 163zM713 -381l-162 -163l-164 164l162 162z" />
    <glyph glyph-name="uni064A" unicode="&#x64a;" horiz-adv-x="1781" arabic-form="isolated" 
d="M1391 883q69 14 132 10t111 -15t77.5 -23t32.5 -13l-87 -183l-19 7.5t-49.5 14t-71 9t-84.5 -6.5q-42 -4 -87.5 -26t-87.5 -57t-78 -79.5t-59.5 -92.5t-31.5 -97t7 -92q13 -37 45.5 -59t76.5 -37t95.5 -26t101.5 -25.5t95 -35.5t76.5 -56.5t45 -88t0.5 -129.5
q-18 -98 -88 -180t-186 -140q-110 -56 -249.5 -85t-303.5 -29q-189 0 -334.5 54.5t-238.5 158.5q-82 94 -115.5 218t-15.5 271q8 65 22 134.5t30.5 135.5t34 125.5t32 105.5t24 74t11.5 32l191 -67q-45 -140 -84 -279t-58 -285q-5 -36 -5.5 -78t8 -85.5t27 -86t51.5 -79.5
q63 -72 169.5 -108t250.5 -36q142 0 256 22.5t194.5 60t125.5 85t50 98.5q2 24 -17 40t-52 28t-76.5 22t-91 23.5t-94.5 32t-87 46t-69.5 67t-40.5 95.5q-16 79 -7.5 157.5t36.5 152t74 139t105.5 118t130.5 89.5t149 54zM765 -942l-162 -162l-164 163l162 163zM1175 -943
l-162 -163l-164 164l162 162z" />
    <glyph glyph-name="uniFEF2" unicode="&#x64a;" horiz-adv-x="1713" arabic-form="final" 
d="M830 -652q-87 0 -180 8.5t-179 34.5t-158 73.5t-118 125.5q-108 158 -96 410q7 137 49 299t121 353l183 -74q-128 -314 -151.5 -535t57.5 -344q41 -59 101.5 -90.5t126 -45.5t130 -16t114.5 -2q29 0 82 4.5t115 15.5t126.5 29.5t117 45.5t85.5 64t33 86q0 12 -11 28.5
t-35.5 35.5t-63.5 40t-96 42q-35 12 -69.5 22.5t-64.5 18t-55 13.5t-41 9l-22 4l15 194l770 -1q41 0 70 -28t29 -70t-29 -70t-70 -28h-239q34 -28 55.5 -56.5t33.5 -55.5t16 -52t4 -46q-1 -85 -39 -151t-100 -115t-141 -82.5t-162.5 -54.5t-165.5 -30t-148 -9zM779 -972
l-162 -162l-164 163l162 163zM1189 -973l-162 -163l-164 164l162 162z" />
    <glyph glyph-name="uni06CC" unicode="&#x6cc;" horiz-adv-x="1778" arabic-form="isolated" 
d="M1391 882q69 14 132 10t111 -15t77.5 -23t32.5 -13l-87 -183l-19 7.5t-49.5 14t-71 9t-84.5 -6.5q-42 -4 -87.5 -26t-87.5 -57t-78 -79.5t-59.5 -92.5t-31.5 -97t7 -92q13 -37 45.5 -59t76.5 -37t95.5 -26t101.5 -25.5t95 -35.5t76.5 -56.5t45 -88t0.5 -129.5
q-18 -98 -88 -180t-186 -140q-110 -56 -249.5 -85t-303.5 -29q-189 0 -334.5 54.5t-238.5 158.5q-82 94 -115.5 218t-15.5 271q8 65 22 134.5t30.5 135.5t34 125.5t32 105.5t24 74t11.5 32l191 -67q-45 -140 -84 -279t-58 -285q-5 -36 -5.5 -78t8 -85.5t27 -86t51.5 -79.5
q63 -72 169.5 -108t250.5 -36q142 0 256 22.5t194.5 60t125.5 85t50 98.5q2 24 -17 40t-52 28t-76.5 22t-91 23.5t-94.5 32t-87 46t-69.5 67t-40.5 95.5q-16 79 -7.5 157.5t36.5 152t74 139t105.5 118t130.5 89.5t149 54z" />
    <glyph glyph-name="uniFBFE" unicode="&#x6cc;" horiz-adv-x="868" arabic-form="initial" 
d="M333 -345l-162 -162l-164 163l162 163zM743 -346l-162 -163l-164 164l162 162zM-149 98q0 42 28.5 70t69.5 28h111q35 -1 76 -0.5t83 4.5t82.5 11.5t74.5 21t60 33.5t39 48q20 43 11.5 122.5t-40.5 185.5q-11 32 -25.5 69.5t-28.5 69.5q-16 38 -33 75l178 88
q0 -1 9.5 -20.5t23.5 -52.5t31 -76.5t32 -92.5q93 -287 23 -448q-71 -161 -252 -212q-27 -8 -69 -12.5t-86 -6.5t-84 -2.5t-62 -0.5h-145h-9q-41 0 -69.5 28t-28.5 70z" />
    <glyph glyph-name="uniFBFF" unicode="&#x6cc;" horiz-adv-x="860" arabic-form="medial" 
d="M-105 98q0 42 28 70.5t70 28.5h76q84 0 161 10t135.5 37t92.5 73.5t31 119.5q-2 56 -9.5 116t-29.5 137l187 53q9 -35 17 -73.5t14 -78.5t10.5 -80.5t6.5 -79.5q2 -37 9 -78t25 -76t49.5 -58t82.5 -23q42 0 71 -28t29 -70q0 -21 -8 -38.5t-21.5 -31t-31 -21t-37.5 -7.5
q-101 0 -167 36.5t-108 91.5q-36 -35 -93 -59.5t-125.5 -39.5t-143.5 -22t-147 -7h-76q-42 0 -70 28t-28 70zM311 -380l-162 -162l-164 163l162 163zM721 -381l-162 -163l-164 164l162 162z" />
    <glyph glyph-name="uniFBFD" unicode="&#x6cc;" horiz-adv-x="1686" arabic-form="final" 
d="M830 -652q-87 0 -180 8.5t-179 34.5t-158 73.5t-118 125.5q-108 158 -96 410q7 137 49 299t121 353l183 -74q-128 -314 -151.5 -535t57.5 -344q41 -59 101.5 -90.5t126 -45.5t130 -16t114.5 -2q29 0 82 4.5t115 15.5t126.5 29.5t117 45.5t85.5 64t33 86q0 12 -11 28.5
t-35.5 35.5t-63.5 40t-96 42q-35 12 -69.5 22.5t-64.5 18t-55 13.5t-41 9l-22 4l15 194l770 -1q41 0 70 -28t29 -70t-29 -70t-70 -28h-239q34 -28 55.5 -56.5t33.5 -55.5t16 -52t4 -46q-1 -85 -39 -151t-100 -115t-141 -82.5t-162.5 -54.5t-165.5 -30t-148 -9z" />
    <glyph glyph-name="uni06D3" unicode="&#x6d3;" horiz-adv-x="2189" arabic-form="isolated" 
d="M995 -214q-74 0 -142 2.5t-129 7.5q-103 9 -191 26t-157 41q-177 59 -220 165q-6 14 -11 35.5t-2.5 47.5t14 56t38.5 62q72 88 253 140q42 12 84.5 21.5t80.5 16t70 10.5t55 6q100 10 169.5 15.5t113.5 8t64 3t22 0.5v-201l-19 -0.5t-60.5 -3t-108 -7.5t-161.5 -15
q-83 -8 -152 -22t-121.5 -30.5t-87.5 -35t-48 -34.5l-2 -2q10 -8 34.5 -22t69.5 -28q57 -19 130.5 -32t160.5 -21q83 -7 182.5 -8.5t206.5 1t216 8.5t210 13t189.5 15t155 14t105 10.5t40.5 4.5l23 -199q-8 -1 -58 -6.5t-131 -13t-186 -16t-222 -16t-239.5 -12.5t-238.5 -5z
M699 961q-12 3 -27 6q-13 2 -29.5 4.5t-35.5 2.5q-15 0 -30.5 -2.5t-31.5 -9.5v2q-32 -14 -51.5 -42.5t-19.5 -61.5q0 -17 8 -36l-1 1q14 -35 49.5 -58.5t78.5 -23.5q11 0 21 1t21 6q26 8 51 21t45 25q23 14 43 29l59 -78q-39 -29 -98 -62t-144 -80l-227 -126l-48 87
l179 100q-41 17 -72.5 49t-48.5 71q-14 34 -14 74q0 31 9.5 60.5t27 55t42 45.5t54.5 32q47 19 98 19q23 0 44 -3t38 -7q19 -4 38 -9z" />
    <glyph glyph-name="uniFBB1" unicode="&#x6d3;" horiz-adv-x="1455" arabic-form="final" 
d="M915 -476q-86 0 -176.5 4t-180.5 15q-78 9 -144 25t-120 39q-133 56 -177 148q-24 51 -19.5 104.5t37.5 105.5q58 93 203 148q34 13 67.5 22.5t63.5 16t55 11t43 6.5q76 10 146.5 15.5t125.5 8t89.5 3t37.5 0.5h485q41 0 69.5 -28.5t28.5 -69.5t-28.5 -69.5t-69.5 -28.5
h-485q-1 0 -33 -1t-84.5 -4.5t-119 -9.5t-135.5 -15q-25 -3 -53 -8t-55.5 -10.5t-53 -12.5t-45.5 -14q-56 -22 -78.5 -41t-27.5 -26t-6 -10.5t-1 -4.5t3 -6t10 -12.5t19.5 -16.5t32.5 -18q21 -9 48.5 -17.5t59.5 -15t66.5 -12t67.5 -9.5q83 -9 172.5 -13t175 -4t162.5 3
t135 6.5t92.5 6t35.5 2.5l20 -194q-4 0 -44.5 -3t-104.5 -6.5t-145 -6.5t-165 -3zM613 689q-12 3 -27 6q-13 2 -29.5 4.5t-35.5 2.5q-15 0 -30.5 -2.5t-31.5 -9.5v2q-32 -14 -51.5 -42.5t-19.5 -61.5q0 -17 8 -36l-1 1q14 -35 49.5 -58.5t78.5 -23.5q11 0 21 1t21 6
q26 8 51 21t45 25q23 14 43 29l59 -78q-39 -29 -98 -62t-144 -80l-227 -126l-48 87l179 100q-41 17 -72.5 49t-48.5 71q-14 34 -14 74q0 31 9.5 60.5t27 55t42 45.5t54.5 32q47 19 98 19q23 0 44 -3t38 -7q19 -4 38 -9z" />
    <glyph glyph-name="uni0626" unicode="&#x626;" horiz-adv-x="1778" arabic-form="isolated" 
d="M1391 885q69 14 132 10t111 -15t77.5 -23t32.5 -13l-87 -183l-19 7.5t-49.5 14t-71 9t-84.5 -6.5q-42 -4 -87.5 -26t-87.5 -57t-78 -79.5t-59.5 -92.5t-31.5 -97t7 -92q13 -37 45.5 -59t76.5 -37t95.5 -26t101.5 -25.5t95 -35.5t76.5 -56.5t45 -88t0.5 -129.5
q-18 -98 -88 -180t-186 -140q-110 -56 -249.5 -85t-303.5 -29q-189 0 -334.5 54.5t-238.5 158.5q-82 94 -115.5 218t-15.5 271q8 65 22 134.5t30.5 135.5t34 125.5t32 105.5t24 74t11.5 32l191 -67q-45 -140 -84 -279t-58 -285q-5 -36 -5.5 -78t8 -85.5t27 -86t51.5 -79.5
q63 -72 169.5 -108t250.5 -36q142 0 256 22.5t194.5 60t125.5 85t50 98.5q2 24 -17 40t-52 28t-76.5 22t-91 23.5t-94.5 32t-87 46t-69.5 67t-40.5 95.5q-16 79 -7.5 157.5t36.5 152t74 139t105.5 118t130.5 89.5t149 54zM724 1260q-12 3 -27 6q-13 2 -29.5 4.5t-35.5 2.5
q-15 0 -30.5 -2.5t-31.5 -9.5v2q-32 -14 -51.5 -42.5t-19.5 -61.5q0 -17 8 -36l-1 1q14 -35 49.5 -58.5t78.5 -23.5q11 0 21 1t21 6q26 8 51 21t45 25q23 14 43 29l59 -78q-39 -29 -98 -62t-144 -80l-227 -126l-48 87l179 100q-41 17 -72.5 49t-48.5 71q-14 34 -14 74
q0 31 9.5 60.5t27 55t42 45.5t54.5 32q47 19 98 19q23 0 44 -3t38 -7q19 -4 38 -9z" />
    <glyph glyph-name="uniFE8B" unicode="&#x626;" horiz-adv-x="722" arabic-form="initial" 
d="M-105 98q0 42 28.5 70t69.5 28h103q53 -2 102 0.5t90 14.5t72.5 36.5t51.5 66.5q20 43 11.5 122.5t-40.5 185.5q-11 32 -25.5 69.5t-28.5 69.5q-16 38 -33 75l178 88q0 -1 9.5 -20.5t23.5 -52.5t31 -76.5t32 -92.5q93 -287 23 -448q-71 -161 -252 -212
q-54 -16 -105.5 -19t-96.5 -3h-137h-9q-41 0 -69.5 28t-28.5 70zM487 1425q-12 3 -27 6q-13 2 -29.5 4.5t-35.5 2.5q-15 0 -30.5 -2.5t-31.5 -9.5v2q-32 -14 -51.5 -42.5t-19.5 -61.5q0 -17 8 -36l-1 1q14 -35 49.5 -58.5t78.5 -23.5q11 0 21 1t21 6q26 8 51 21t45 25
q23 14 43 29l59 -78q-39 -29 -98 -62t-144 -80l-227 -126l-48 87l179 100q-41 17 -72.5 49t-48.5 71q-14 34 -14 74q0 31 9.5 60.5t27 55t42 45.5t54.5 32q47 19 98 19q23 0 44 -3t38 -7q19 -4 38 -9z" />
    <glyph glyph-name="uniFE8C" unicode="&#x626;" horiz-adv-x="715" arabic-form="medial" 
d="M-94 98q0 41 28 69.5t70 28.5h17q168 0 244 60.5t76 179.5q0 28 -2 56.5t-6.5 59t-12 64t-18.5 71.5l188 53q10 -35 17 -67.5t12.5 -68.5t9.5 -78t8 -95q3 -37 10 -78t25 -76t49.5 -58t82.5 -23q20 0 38 -7.5t31.5 -21t21.5 -31.5t8 -38q0 -21 -8 -38.5t-21.5 -31
t-31 -21t-37.5 -7.5q-50 0 -91.5 9t-75 25.5t-60 39.5t-47.5 50q-63 -62 -163.5 -93t-246.5 -31h-17q-42 0 -70 28t-28 70zM475 1308q-12 3 -27 6q-13 2 -29.5 4.5t-35.5 2.5q-15 0 -30.5 -2.5t-31.5 -9.5v2q-32 -14 -51.5 -42.5t-19.5 -61.5q0 -17 8 -36l-1 1
q14 -35 49.5 -58.5t78.5 -23.5q11 0 21 1t21 6q26 8 51 21t45 25q23 14 43 29l59 -78q-39 -29 -98 -62t-144 -80l-227 -126l-48 87l179 100q-41 17 -72.5 49t-48.5 71q-14 34 -14 74q0 31 9.5 60.5t27 55t42 45.5t54.5 32q47 19 98 19q23 0 44 -3t38 -7q19 -4 38 -9z" />
    <glyph glyph-name="uniFE8A" unicode="&#x626;" horiz-adv-x="1683" arabic-form="final" 
d="M830 -652q-87 0 -180 8.5t-179 34.5t-158 73.5t-118 125.5q-108 158 -96 410q7 137 49 299t121 353l183 -74q-128 -314 -151.5 -535t57.5 -344q41 -59 101.5 -90.5t126 -45.5t130 -16t114.5 -2q29 0 82 4.5t115 15.5t126.5 29.5t117 45.5t85.5 64t33 86q0 12 -11 28.5
t-35.5 35.5t-63.5 40t-96 42q-35 12 -69.5 22.5t-64.5 18t-55 13.5t-41 9l-22 4l15 194l770 -1q41 0 70 -28t29 -70t-29 -70t-70 -28h-239q34 -28 55.5 -56.5t33.5 -55.5t16 -52t4 -46q-1 -85 -39 -151t-100 -115t-141 -82.5t-162.5 -54.5t-165.5 -30t-148 -9zM946 644
q-12 3 -27 6q-13 2 -29.5 4.5t-35.5 2.5q-15 0 -30.5 -2.5t-31.5 -9.5v2q-32 -14 -51.5 -42.5t-19.5 -61.5q0 -17 8 -36l-1 1q14 -35 49.5 -58.5t78.5 -23.5q11 0 21 1t21 6q26 8 51 21t45 25q23 14 43 29l59 -78q-39 -29 -98 -62t-144 -80l-227 -126l-48 87l179 100
q-41 17 -72.5 49t-48.5 71q-14 34 -14 74q0 31 9.5 60.5t27 55t42 45.5t54.5 32q47 19 98 19q23 0 44 -3t38 -7q19 -4 38 -9z" />
    <glyph glyph-name="uni06C2" unicode="&#x6c2;" horiz-adv-x="993" 
d="M495 0q-5 0 -24.5 1t-48.5 5.5t-65.5 14t-73.5 27.5q-95 44 -144.5 120t-49.5 179q0 180 163 377q33 39 63.5 70t53.5 52q-30 27 -48 42t-18 16l126 153q1 -2 21.5 -19t52.5 -47t73 -70.5t84 -88.5q122 -139 182.5 -260.5t60.5 -224.5t-45.5 -179t-133.5 -119
q-32 -16 -65 -25.5t-63 -15t-56.5 -7t-44.5 -1.5zM507 704q-29 -26 -67.5 -66t-72.5 -88t-57.5 -100.5t-23.5 -102.5q0 -15 2.5 -31t11 -31.5t24.5 -30.5t43 -27q19 -9 39 -14.5t37 -8.5t31 -4t21 -1q9 0 25.5 0.5t36 3t40 8t39.5 14.5q37 20 53.5 48.5t16.5 73.5
q0 65 -50 156t-145 197q-1 1 -1.5 2t-2.5 2zM518 1550q-12 3 -27 6q-13 2 -29.5 4.5t-35.5 2.5q-15 0 -30.5 -2.5t-31.5 -9.5v2q-32 -14 -51.5 -42.5t-19.5 -61.5q0 -17 8 -36l-1 1q14 -35 49.5 -58.5t78.5 -23.5q11 0 21 1t21 6q26 8 51 21t45 25q23 14 43 29l59 -78
q-39 -29 -98 -62t-144 -80l-227 -126l-48 87l179 100q-41 17 -72.5 49t-48.5 71q-14 34 -14 74q0 31 9.5 60.5t27 55t42 45.5t54.5 32q47 19 98 19q23 0 44 -3t38 -7q19 -4 38 -9z" />
    <glyph glyph-name="uniFBA6" unicode="&#x6c1;" horiz-adv-x="983" arabic-form="isolated" 
d="M485 0q-5 0 -24.5 1t-48.5 5.5t-65.5 14t-73.5 27.5q-95 44 -144.5 120t-49.5 179q0 180 163 377q33 39 63.5 70t53.5 52q-30 27 -48 42t-18 16l126 153q1 -2 21.5 -19t52.5 -47t73 -70.5t84 -88.5q122 -139 182.5 -260.5t60.5 -224.5t-45.5 -179t-133.5 -119
q-32 -16 -65 -25.5t-63 -15t-56.5 -7t-44.5 -1.5zM497 704q-29 -26 -67.5 -66t-72.5 -88t-57.5 -100.5t-23.5 -102.5q0 -15 2.5 -31t11 -31.5t24.5 -30.5t43 -27q19 -9 39 -14.5t37 -8.5t31 -4t21 -1q9 0 25.5 0.5t36 3t40 8t39.5 14.5q37 20 53.5 48.5t16.5 73.5
q0 65 -50 156t-145 197q-1 1 -1.5 2t-2.5 2z" />
    <glyph glyph-name="uni06C3" unicode="&#x6c3;" horiz-adv-x="1020" 
d="M522 0q-5 0 -24.5 1t-48.5 5.5t-65.5 14t-73.5 27.5q-95 44 -144.5 120t-49.5 179q0 180 163 377q33 39 63.5 70t53.5 52q-30 27 -48 42t-18 16l126 153q1 -2 21.5 -19t52.5 -47t73 -70.5t84 -88.5q122 -139 182.5 -260.5t60.5 -224.5t-45.5 -179t-133.5 -119
q-32 -16 -65 -25.5t-63 -15t-56.5 -7t-44.5 -1.5zM534 704q-29 -26 -67.5 -66t-72.5 -88t-57.5 -100.5t-23.5 -102.5q0 -15 2.5 -31t11 -31.5t24.5 -30.5t43 -27q19 -9 39 -14.5t37 -8.5t31 -4t21 -1q9 0 25.5 0.5t36 3t40 8t39.5 14.5q37 20 53.5 48.5t16.5 73.5
q0 65 -50 156t-145 197q-1 1 -1.5 2t-2.5 2zM430 1370l-162 -162l-164 163l162 163zM840 1369l-162 -163l-164 164l162 162z" />
    <glyph glyph-name="uniFBAB" unicode="&#x6be;" horiz-adv-x="1169" arabic-form="final" 
d="M746 705q-16 -12 -39.5 -35t-49.5 -58q-15 -21 -31 -48t-31 -60.5t-28 -72.5t-21 -84q-10 -67 -4 -139q16 4 31 6t31 7q154 42 198 164q15 39 20 74t3.5 65t-7.5 54.5t-14 42.5q-14 30 -29.5 51.5t-28.5 32.5zM36 14q0 20 5.5 34t17 25t30 20t45.5 20l211 84
q-8 81 2.5 157.5t34.5 152.5q17 50 38 92.5t43 77.5t44 63t41 49q15 17 36.5 38t47.5 40t55 32t58 15q34 1 64 -13.5t55 -35t42.5 -41.5t26.5 -32q64 -90 84 -200q22 -131 -28 -276q-45 -119 -142 -194q-41 -31 -88 -54t-104 -37q-17 -5 -34 -9t-34 -7q47 -118 137 -238
q12 69 46 137q57 122 168 202q56 42 113.5 61t120.5 19q42 0 70.5 -28.5t28.5 -69.5q0 -42 -28.5 -70t-70.5 -28h-8q-35 -2 -62.5 -10.5t-48.5 -26.5q-23 -18 -38.5 -34.5t-27.5 -33t-21 -33t-18 -34.5q-11 -23 -21.5 -57t-11.5 -75t13 -87t52 -92l-1 -2l25 -21l-125 -152
q-189 153 -311 310t-177 323l-9 25l-248 -84q-42 0 -70 28t-28 70z" />
    <glyph glyph-name="uniFBAC" unicode="&#x6be;" horiz-adv-x="1510" arabic-form="initial" 
d="M-104 99q0 20 8 37.5t22 31t32.5 21t39.5 7.5h9q60 0 105.5 1t82.5 3t67.5 5t59.5 7q-75 81 -112.5 159.5t-37.5 151.5q0 50 13.5 105.5t42 107t71.5 96t103 73.5l-79 31l95 180l348 -143q93 -41 179.5 -82t160 -82t129.5 -83t87 -84q92 -127 92 -260q0 -98 -52 -183.5
t-157 -141.5l1 1q-28 -17 -66 -28.5t-79.5 -18.5t-83.5 -10.5t-77 -3.5q-88 0 -170.5 13t-167.5 47q-53 -16 -119.5 -27t-139.5 -17.5t-149 -9.5t-147 -3h-9q-21 0 -39.5 7.5t-32.5 21t-22 31.5t-8 39zM956 571q0 -42 -12 -91t-33.5 -98.5t-52.5 -97.5t-69 -88q32 -5 53 -6
t39 -1h48q76 0 132.5 16.5t93 44.5t54.5 65.5t18 78.5q0 35 -18 76t-53.5 82.5t-88.5 81.5t-124 73q11 -38 12 -72t1 -64zM751 579q0 30 -4.5 63.5t-19 64t-41 54t-69.5 32.5q-55 11 -101 -10.5t-79.5 -60.5t-52.5 -88t-19 -94q0 -42 15 -80t40.5 -71.5t59.5 -63t72 -54.5
q51 23 88.5 58t62 76.5t36.5 86.5t12 87z" />
    <glyph glyph-name="uniFBAD" unicode="&#x6be;" horiz-adv-x="1048" arabic-form="medial" 
d="M542 705q-28 -3 -56 -29.5t-52.5 -68t-44.5 -93.5t-33 -106t-18.5 -106.5t0.5 -93.5q66 -8 119 16.5t91 69t58.5 101.5t21 115t-20 110t-65.5 85zM-99 98q0 41 28 69.5t70 28.5h142q-3 58 6.5 133t31.5 154t55.5 154.5t79 136t102.5 99t125 41.5q58 3 104.5 -29
t80.5 -84.5t55 -119t29 -134t1.5 -129t-26.5 -102.5q-23 -66 -63.5 -117t-93.5 -88t-115.5 -61t-129.5 -35q12 -29 31.5 -71t44.5 -84t54.5 -78.5t61.5 -55.5q-5 63 11 122.5t48 111.5t77 95.5t98 74.5t110.5 48.5t115.5 17.5q42 0 70.5 -28.5t28.5 -69.5q0 -42 -28.5 -70
t-70.5 -28h-8q-55 -2 -104.5 -28t-88 -67t-62.5 -93t-28 -107.5t15 -110t66 -100.5l-125 -152q-106 64 -189 140t-146 158t-107 167t-71 168l-9 25h-179q-42 0 -70 28t-28 70z" />
    <glyph glyph-name="uniFE70" unicode="&#xfe70;" arabic-form="isolated" 
d="M468 1242l-502 -178v111l502 171v-104zM468 1501l-502 -178v111l502 171v-104z" />
    <glyph glyph-name="uniFE72" unicode="&#xfe72;" arabic-form="isolated" 
d="M-19 1139q7 11 13.5 31t10 43t2.5 45t-8 36q-4 6 -9.5 11t-20.5 7q-12 0 -25 -5t-23.5 -11.5t-19 -13.5t-12.5 -10l-65 65q3 4 15.5 14.5t32 23t46 21t56.5 7.5q35 -2 62.5 -19t43.5 -47q19 -34 19.5 -75.5t-7.5 -80.5q53 16 113 39.5t104 54.5l-5 5q-14 5 -28.5 12.5
t-30.5 14.5q-44 22 -67.5 50.5t-32.5 57t-6.5 56t12.5 46.5q15 31 41 56.5t57.5 41t66 17.5t65.5 -13q63 -30 85 -104q7 -24 8.5 -51t-1 -52.5t-7.5 -49t-10 -42.5q9 -2 16.5 -4.5t13.5 -3.5l-27 -89l-50 15q-28 -27 -64.5 -49.5t-76 -40.5t-78.5 -32t-72.5 -23.5
t-56.5 -15.5t-30 -7zM323 1540q-22 0 -49 -18.5t-41 -43.5l-2 -8.5t0.5 -21.5t14.5 -28t40 -29q15 -9 30 -15t28 -14l25 -12q3 13 7 31.5t5.5 38t0.5 39.5t-6 37q-11 27 -35 41l-8 2t-10 1z" />
    <glyph glyph-name="uniFE74" unicode="&#xfe74;" arabic-form="isolated" 
d="M468 -511l-502 -178v111l502 171v-104zM468 -252l-502 -178v111l502 171v-104z" />
    <glyph glyph-name="uniFE76" unicode="&#xfe76;" arabic-form="isolated" 
d="M468 1292l-502 -178v111l502 171v-104z" />
    <glyph glyph-name="uniFE78" unicode="&#xfe78;" arabic-form="isolated" 
d="M-61 1165q23 7 60.5 19.5t79.5 29.5t83.5 38.5t74.5 46.5l-10 4q-14 8 -28.5 14.5t-30.5 14.5q-45 22 -69 51t-33.5 58.5t-6.5 58t12 48.5q15 30 42 56.5t59 42t68 17.5t67 -13q65 -31 86 -104q15 -53 9 -108.5t-18 -93.5q9 -2 16.5 -4.5t14.5 -4.5l-28 -91q-8 2 -22.5 7
t-29.5 11q-28 -29 -63.5 -53.5t-74.5 -45t-77 -36.5t-70 -27.5t-55 -18.5t-30 -9zM247 1571q-12 0 -25 -5t-25.5 -14.5t-22.5 -21t-17 -24.5q-1 0 -3.5 -8.5t0 -22t14.5 -28.5t41 -30q15 -8 30.5 -15t29.5 -14l26 -12q4 14 7 32.5t5 38.5t0.5 40t-6.5 38q-6 15 -14 25.5
t-21 15.5q-6 5 -19 5z" />
    <glyph glyph-name="uniFE7A" unicode="&#xfe7a;" arabic-form="isolated" 
d="M468 -252l-502 -178v111l502 171v-104z" />
    <glyph glyph-name="uniFE7C" unicode="&#xfe7c;" arabic-form="isolated" 
d="M105 1052q-30 1 -52 7.5t-38 16t-27 20.5t-17 22q-18 30 -20 64.5t4 65t15 54t14 31.5l77 -36q-6 -13 -12 -31t-9.5 -37t-3 -36.5t7.5 -29.5q6 -10 20.5 -16.5t31.5 -8t34 2.5t26 16q13 15 20 37t9.5 46t2 46t-0.5 36q21 3 38 5q14 2 26.5 3t12.5 -1q7 -63 17.5 -99
t22.5 -53.5t24 -21.5t21 -4q41 3 54 31.5t8 66t-23 76t-39 63.5l71 49q6 -9 23 -36t32 -62.5t23 -74.5t-3 -73t-28 -57.5t-37.5 -38.5t-42.5 -21.5t-42 -6.5q-23 0 -53.5 10t-55.5 42q-23 -32 -54 -49.5t-71 -17.5h-6z" />
    <glyph glyph-name="uniFE7E" unicode="&#xfe7e;" arabic-form="isolated" 
d="M207 1227q19 0 36.5 10.5t30.5 27t20.5 36.5t7.5 39t-7.5 38.5t-20.5 36t-30.5 27t-36.5 10.5q-20 0 -37 -10.5t-30.5 -27t-21 -36t-7.5 -38.5t7.5 -39t21 -36.5t30.5 -27t37 -10.5zM207 1559q40 0 78 -19t67 -53q27 -32 41.5 -70t14.5 -77q0 -38 -14.5 -76.5
t-41.5 -70.5q-29 -35 -67 -54t-78 -19q-41 0 -79 19t-67 54q-27 32 -41.5 70.5t-14.5 76.5q0 39 14.5 77t41.5 70q29 34 67 53t79 19z" />
    <glyph glyph-name="uniFC5E" unicode="&#xfc5e;" arabic-form="isolated" 
d="M117 1052q-30 1 -52 7.5t-38 16t-27 20.5t-17 22q-18 30 -20 64.5t4 65t15 54t14 31.5l77 -36q-6 -13 -12 -31t-9.5 -37t-3 -36.5t7.5 -29.5q6 -10 20.5 -16.5t31.5 -8t34 2.5t26 16q13 15 20 37t9.5 46t2 46t-0.5 36q21 3 38 5q14 2 26.5 3t12.5 -1q7 -63 17.5 -99
t22.5 -53.5t24 -21.5t21 -4q41 3 54 31.5t8 66t-23 76t-39 63.5l71 49q6 -9 23 -36t32 -62.5t23 -74.5t-3 -73t-28 -57.5t-37.5 -38.5t-42.5 -21.5t-42 -6.5q-23 0 -53.5 10t-55.5 42q-23 -32 -54 -49.5t-71 -17.5h-6zM47 1498q7 11 13.5 31t10 43t2.5 45t-8 36
q-4 6 -9.5 11t-20.5 7q-12 0 -25 -5t-23.5 -11.5t-19 -13.5t-12.5 -10l-65 65q3 4 15.5 14.5t32 23t46 21t56.5 7.5q35 -2 62.5 -19t43.5 -47q19 -34 19.5 -75.5t-7.5 -80.5q53 16 113 39.5t104 54.5l-5 5q-14 5 -28.5 12.5t-30.5 14.5q-44 22 -67.5 50.5t-32.5 57t-6.5 56
t12.5 46.5q15 31 41 56.5t57.5 41t66 17.5t65.5 -13q63 -30 85 -104q7 -24 8.5 -51t-1 -52.5t-7.5 -49t-10 -42.5q9 -2 16.5 -4.5t13.5 -3.5l-27 -89l-50 15q-28 -27 -64.5 -49.5t-76 -40.5t-78.5 -32t-72.5 -23.5t-56.5 -15.5t-30 -7zM389 1899q-22 0 -49 -18.5t-41 -43.5
l-2 -8.5t0.5 -21.5t14.5 -28t40 -29q15 -9 30 -15t28 -14l25 -12q3 13 7 31.5t5.5 38t0.5 39.5t-6 37q-11 27 -35 41l-8 2t-10 1z" />
    <glyph glyph-name="uniFC5F" unicode="&#xfc5f;" arabic-form="isolated" 
d="M89 1676q-30 1 -52 7.5t-38 16t-27 20.5t-17 22q-18 30 -20 64.5t4 65t15 54t14 31.5l77 -36q-6 -13 -12 -31t-9.5 -37t-3 -36.5t7.5 -29.5q6 -10 20.5 -16.5t31.5 -8t34 2.5t26 16q13 15 20 37t9.5 46t2 46t-0.5 36q21 3 38 5q14 2 26.5 3t12.5 -1q7 -63 17.5 -99
t22.5 -53.5t24 -21.5t21 -4q41 3 54 31.5t8 66t-23 76t-39 63.5l71 49q6 -9 23 -36t32 -62.5t23 -74.5t-3 -73t-28 -57.5t-37.5 -38.5t-42.5 -21.5t-42 -6.5q-23 0 -53.5 10t-55.5 42q-23 -32 -54 -49.5t-71 -17.5h-6zM470 1299l-502 -178v111l502 171v-104zM470 1558
l-502 -178v111l502 171v-104z" />
    <glyph glyph-name="uniFC60" unicode="&#xfc60;" arabic-form="isolated" 
d="M110 1051q-30 1 -52 7.5t-38 16t-27 20.5t-17 22q-18 30 -20 64.5t4 65t15 54t14 31.5l77 -36q-6 -13 -12 -31t-9.5 -37t-3 -36.5t7.5 -29.5q6 -10 20.5 -16.5t31.5 -8t34 2.5t26 16q13 15 20 37t9.5 46t2 46t-0.5 36q21 3 38 5q14 2 26.5 3t12.5 -1q7 -63 17.5 -99
t22.5 -53.5t24 -21.5t21 -4q41 3 54 31.5t8 66t-23 76t-39 63.5l71 49q6 -9 23 -36t32 -62.5t23 -74.5t-3 -73t-28 -57.5t-37.5 -38.5t-42.5 -21.5t-42 -6.5q-23 0 -53.5 10t-55.5 42q-23 -32 -54 -49.5t-71 -17.5h-6zM466 1571l-502 -178v111l502 171v-104z" />
    <glyph glyph-name="uniFC61" unicode="&#xfc61;" arabic-form="isolated" 
d="M104 1045q-30 1 -52 7.5t-38 16t-27 20.5t-17 22q-18 30 -20 64.5t4 65t15 54t14 31.5l77 -36q-6 -13 -12 -31t-9.5 -37t-3 -36.5t7.5 -29.5q6 -10 20.5 -16.5t31.5 -8t34 2.5t26 16q13 15 20 37t9.5 46t2 46t-0.5 36q21 3 38 5q14 2 26.5 3t12.5 -1q7 -63 17.5 -99
t22.5 -53.5t24 -21.5t21 -4q41 3 54 31.5t8 66t-23 76t-39 63.5l71 49q6 -9 23 -36t32 -62.5t23 -74.5t-3 -73t-28 -57.5t-37.5 -38.5t-42.5 -21.5t-42 -6.5q-23 0 -53.5 10t-55.5 42q-23 -32 -54 -49.5t-71 -17.5h-6zM-45 1470q23 7 60.5 19.5t79.5 29.5t83.5 38.5
t74.5 46.5l-10 4q-14 8 -28.5 14.5t-30.5 14.5q-45 22 -69 51t-33.5 58.5t-6.5 58t12 48.5q15 30 42 56.5t59 42t68 17.5t67 -13q65 -31 86 -104q15 -53 9 -108.5t-18 -93.5q9 -2 16.5 -4.5t14.5 -4.5l-28 -91q-8 2 -22.5 7t-29.5 11q-28 -29 -63.5 -53.5t-74.5 -45
t-77 -36.5t-70 -27.5t-55 -18.5t-30 -9zM263 1876q-12 0 -25 -5t-25.5 -14.5t-22.5 -21t-17 -24.5q-1 0 -3.5 -8.5t0 -22t14.5 -28.5t41 -30q15 -8 30.5 -15t29.5 -14l26 -12q4 14 7 32.5t5 38.5t0.5 40t-6.5 38q-6 15 -14 25.5t-21 15.5q-6 5 -19 5z" />
    <glyph glyph-name="uniFC62" unicode="&#xfc62;" arabic-form="isolated" 
d="M70 1408q-30 1 -52 7.5t-38 16t-27 20.5t-17 22q-18 30 -20 64.5t4 65t15 54t14 31.5l77 -36q-6 -13 -12 -31t-9.5 -37t-3 -36.5t7.5 -29.5q6 -10 20.5 -16.5t31.5 -8t34 2.5t26 16q13 15 20 37t9.5 46t2 46t-0.5 36q21 3 38 5q14 2 26.5 3t12.5 -1q7 -63 17.5 -99
t22.5 -53.5t24 -21.5t21 -4q41 3 54 31.5t8 66t-23 76t-39 63.5l71 49q6 -9 23 -36t32 -62.5t23 -74.5t-3 -73t-28 -57.5t-37.5 -38.5t-42.5 -21.5t-42 -6.5q-23 0 -53.5 10t-55.5 42q-23 -32 -54 -49.5t-71 -17.5h-6zM459 1297l-502 -178v111l502 171v-104z" />
    <glyph glyph-name="uniFC63" unicode="&#xfc63;" arabic-form="isolated" 
d="M105 1045q-30 1 -52 7.5t-38 16t-27 20.5t-17 22q-18 30 -20 64.5t4 65t15 54t14 31.5l77 -36q-6 -13 -12 -31t-9.5 -37t-3 -36.5t7.5 -29.5q6 -10 20.5 -16.5t31.5 -8t34 2.5t26 16q13 15 20 37t9.5 46t2 46t-0.5 36q21 3 38 5q14 2 26.5 3t12.5 -1q7 -63 17.5 -99
t22.5 -53.5t24 -21.5t21 -4q41 3 54 31.5t8 66t-23 76t-39 63.5l71 49q6 -9 23 -36t32 -62.5t23 -74.5t-3 -73t-28 -57.5t-37.5 -38.5t-42.5 -21.5t-42 -6.5q-23 0 -53.5 10t-55.5 42q-23 -32 -54 -49.5t-71 -17.5h-6zM147.221 1420.4q26.2178 84.5049 24.7051 174.403
t-24.7051 169.908l96.8027 26.9697q23.1924 -71.0195 25.7129 -170.358q2.52148 -99.3379 -26.7207 -227.893z" />
    <glyph glyph-name=".notdef" horiz-adv-x="1229" 
d="M102 -362v1806h1024v-1806h-1024zM217 -248h795v1577h-795v-1577z" />
    <glyph glyph-name="NULL" 
 />
    <glyph glyph-name="nonmarkingreturn" horiz-adv-x="602" 
 />
    <glyph glyph-name="space" unicode=" " horiz-adv-x="650" 
 />
    <glyph glyph-name="space" unicode="&#xa0;" horiz-adv-x="650" 
 />
    <glyph glyph-name="uni0640" unicode="&#x640;" horiz-adv-x="907" 
d="M-111 98q0 20 8.5 38t22.5 31.5t32.5 21t39.5 7.5h8h908h6q20 0 38 -7.5t31.5 -21t21.5 -31.5t8 -38q0 -42 -29 -70t-70 -28h-6h-917q-20 0 -38.5 7.5t-32.5 21t-22.5 31t-8.5 38.5z" />
    <glyph glyph-name="uni066E" unicode="&#x66e;" horiz-adv-x="2013" 
d="M994 0q-359 3 -575 83q-206 80 -280 229q-42 81 -42 176t39 198q14 36 29 66t27.5 52t21.5 35.5l11 16.5l159 -118q-6 -8 -12 -17t-11 -19q-10 -17 -21 -39.5t-21 -50.5q-46 -127 -4 -210q49 -98 224 -150.5t455 -53.5q80 0 175 6.5t193.5 23.5t196 46.5t181.5 76.5
q-4 45 -19 94.5t-36 97.5t-44 91.5t-43 77t-33 54t-14 21.5l166 108q1 -2 13 -20t29 -48t38.5 -70t42.5 -86.5t39 -97.5t30 -102t15.5 -91t-6 -73.5t-35 -63t-72.5 -59.5q-45 -28 -105 -52.5t-129.5 -45.5t-144.5 -37t-151 -27.5t-149 -17t-138 -4.5z" />
    <glyph glyph-name="feh_dotless.isol" horiz-adv-x="1982" 
d="M1714 1013q46 -50 84 -124t60.5 -161.5t26 -183.5t-19.5 -192q-3 -14 -11 -37t-26.5 -51.5t-49.5 -60.5t-80 -62q-55 -35 -135.5 -61.5t-177.5 -44t-206.5 -26t-223.5 -8.5q-606 0 -784 304q-40 67 -54.5 136.5t-12 135t16 124.5t29 103.5t29 72t14.5 31.5l174 -95
q0 -1 -9 -19.5t-20 -50t-21.5 -72.5t-13.5 -86.5t5 -92t34 -88.5q30 -50 79.5 -88.5t121 -65t166.5 -41.5t217 -18q144 -4 248.5 4t179.5 23t125.5 34.5t85.5 38.5q33 17 53.5 33.5t32.5 30.5h-51h-48.5t-50.5 3q-199 12 -294 131q-15 18 -29 43.5t-22.5 59t-10.5 75t6 91.5
q11 64 37 130.5t66.5 120.5t95.5 88.5t124 34.5q133 0 240 -119zM1514 555q104 -6 173 0q-9 50 -22.5 111t-37 116.5t-60.5 98t-93 54.5q-16 3 -36.5 -12t-39.5 -42.5t-35 -63t-23 -72.5t-3 -72.5t25 -61.5q18 -24 58 -38.5t94 -17.5z" />
    <glyph glyph-name="uni06A1.fina" horiz-adv-x="2106" 
d="M1877 242q-7 -5 -11 -11t-9 -11q61 -11 123 -17.5t128 -6.5q41 0 70 -28t29 -70q0 -20 -8 -38t-21.5 -31.5t-31.5 -21t-38 -7.5q-129 0 -248.5 18.5t-222.5 53.5q-16 -5 -29.5 -10t-29.5 -10q-49 -18 -118 -32t-150 -23.5t-170 -14t-179 -4.5q-306 1 -507.5 76.5
t-291.5 228.5q-40 67 -54.5 136.5t-12.5 135t15.5 124.5t29.5 103.5t29 72t15 31.5l174 -95q0 -1 -9 -19.5t-20.5 -50t-22 -72.5t-13 -86t5 -92t33.5 -89q30 -50 77.5 -88t117 -63.5t163 -39.5t215.5 -17q93 -3 164.5 -1.5t127.5 6t101 11.5t84 15q-137 113 -137 264
q0 93 28.5 176.5t82.5 151.5q54 67 122.5 104t144.5 37q68 0 127.5 -24.5t105.5 -74.5q18 -19 37 -46t34.5 -64t25 -85t9.5 -108q0 -175 -85 -294zM1629 286q43 25 69.5 54t41 61t19 66t4.5 69q0 72 -17.5 112.5t-40.5 60.5t-46.5 25t-35.5 5q-28 0 -59.5 -19t-58 -54
t-44 -85t-17.5 -112q0 -46 43.5 -92t128.5 -84z" />
    <glyph glyph-name="uni066F" unicode="&#x66f;" horiz-adv-x="1581" 
d="M1171 -3q-26 0 -53.5 1t-55.5 3q-109 8 -191 43t-131 100q-92 118 -61 291q14 85 43.5 154.5t73.5 125.5q49 63 109 96t124 33q72 0 136.5 -32.5t124.5 -96.5q50 -56 88 -129t62 -156.5t33 -173t0 -179.5h2q0 -2 -2.5 -33.5t-12.5 -81t-29.5 -111.5t-53.5 -126
q-41 -79 -95.5 -141.5t-120.5 -107.5q-84 -59 -182 -87t-214 -28h-2q-197 0 -345 76q-78 39 -139 94.5t-102 127.5q-52 85 -74.5 186t-13.5 215q8 117 47 238t107 249l175 -94q-55 -102 -87.5 -199.5t-42 -186t4.5 -166t52 -141.5q59 -98 167 -149.5t251 -51.5h2
q103 -8 187 26.5t148 96t106 144t60 172.5q-22 0 -45.5 -0.5t-49.5 -0.5zM1029 645q-36 0 -78 -52q-29 -35 -47.5 -83.5t-29.5 -108.5q-15 -90 21 -135q15 -20 38 -32t48.5 -19.5t50 -11t42.5 -5.5q63 -4 115.5 -3.5t90.5 3.5q-3 64 -15 121t-30.5 106t-42 88.5t-48.5 68.5
q-21 22 -50.5 42.5t-64.5 20.5z" />
    <glyph glyph-name="onedot.above" horiz-adv-x="1024" 
d="M687 1224l-163 -163l-164 164l163 163z" />
    <glyph glyph-name="twodots.above" horiz-adv-x="1024" 
d="M480 1022l-162 -162l-164 163l162 163zM890 1021l-162 -163l-164 164l162 162z" />
    <glyph glyph-name="threedots.above" horiz-adv-x="1151" 
d="M621 1152l162 162l164 -164l-162 -162zM182 1153l162 163l164 -164l-162 -163zM423 1454l148 148l149 -149l-148 -148z" />
    <glyph glyph-name="threedots.below" horiz-adv-x="1057" 
d="M760 -74l162 -162l-164 -164l-162 162zM323 -75l162 -163l-164 -164l-162 163zM545 -391l148 -148l-149 -149l-148 148z" />
    <glyph glyph-name="uni0660" unicode="&#x660;" horiz-adv-x="990" 
d="M170 542q0 70 26.5 131.5t72.5 108t107.5 73.5t132.5 27q70 0 131.5 -27t108 -73.5t73.5 -108t27 -131.5q0 -71 -27 -132.5t-73.5 -107.5t-108 -72.5t-131.5 -26.5q-71 0 -132.5 26.5t-107.5 72.5t-72.5 107.5t-26.5 132.5zM333 542q0 -36 14 -68t38 -56t56 -38t68 -14
t68.5 14t56.5 38t38 56t14 68t-14 68.5t-38 56.5t-56.5 38t-68.5 14t-68 -14t-56 -38t-38 -56.5t-14 -68.5z" />
    <glyph glyph-name="uni0661" unicode="&#x661;" horiz-adv-x="662" 
d="M347 -26q0 195 -7 387.5t-31 369.5t-68.5 331t-119.5 272l166 106q82 -130 136.5 -303t83.5 -391q12 -94 19.5 -194t12 -199.5t6 -195.5t1.5 -183h-199z" />
    <glyph glyph-name="uni0662" unicode="&#x662;" horiz-adv-x="1137" 
d="M981 1462q0 -2 3 -20t6 -46t5 -64.5t1 -76.5q-5 -232 -109 -354v1q-50 -61 -120.5 -92t-156.5 -31q-47 0 -86 6.5t-77 21.5q2 -14 4 -27.5t4 -27.5q12 -94 19.5 -193.5t12 -199t6 -196t1.5 -183.5h-199q0 159 -3 316.5t-16 306t-38.5 284t-70.5 249.5q-21 53 -45 102.5
t-54 101.5l167 106q16 -26 30 -52.5t27 -55t27 -60.5t31 -69q23 -53 45.5 -95.5t52 -73.5t68 -47.5t94.5 -16.5q42 0 72.5 12.5t52.5 38.5q19 22 31 51.5t19.5 62.5t10.5 68t3 68q0 43 -4.5 83t-9.5 66z" />
    <glyph glyph-name="uni0663" unicode="&#x663;" horiz-adv-x="1439" 
d="M1301 1473q16 -86 24.5 -159t8.5 -134q0 -191 -81 -290q-38 -45 -90.5 -69t-116.5 -24q-25 0 -53 5.5t-57 19t-57 37.5t-53 60l-20 -30q-48 -54 -104 -82t-133 -28q-38 0 -66 4.5t-59 15.5q2 -13 3.5 -24t3.5 -23q13 -96 20.5 -195t11.5 -197t5.5 -194t1.5 -185h-199
q2 41 2.5 85.5t0.5 84.5q0 144 -10 283t-29.5 268t-49.5 247t-70 221q-2 4 -6 14q-2 4 -3 8q-16 38 -34.5 75.5t-41.5 73.5l181 107q7 -12 16.5 -29t19.5 -37t20 -41.5t20 -41.5q23 -48 47 -101q27 -62 47.5 -104t42.5 -68t51 -37.5t74 -11.5q33 0 50.5 10t34.5 31
q28 32 44.5 92t18.5 141q0 11 -1 38.5t-3 57.5t-3.5 55.5t-2.5 31.5l198 24v-9t1 -10q2 -11 4.5 -35.5t4.5 -57.5q6 -61 16.5 -129t26.5 -120q13 -35 26 -55.5t25 -30.5t21.5 -12.5t15.5 -2.5q26 0 37.5 6.5t16.5 13.5q5 6 11.5 17.5t12 31t9.5 48t4 68.5q0 44 -7 106.5
t-23 148.5z" />
    <glyph glyph-name="uni0664" unicode="&#x664;" horiz-adv-x="1104" 
d="M707 1295q-19 -6 -49.5 -18.5t-67.5 -29t-77.5 -38t-78.5 -45.5q-75 -50 -114.5 -96.5t-33.5 -81.5q8 -44 84 -74q19 -8 47 -15.5t66 -13.5t88 -9.5t114 -3.5h35.5t38.5 1l32 -196q-78 -24 -140.5 -58t-109 -72.5t-77.5 -77.5t-47 -73q-15 -32 -18.5 -60t5.5 -48
q14 -32 55.5 -56.5t100.5 -35.5q46 -8 92 -8q64 0 133 14t139 43l75 -187q-129 -52 -253 -65q-48 -6 -94 -6q-67 0 -130 12q-110 21 -188.5 75.5t-113.5 132.5q-26 60 -22.5 130.5t37.5 142.5q26 58 69.5 112.5t101.5 102.5q-31 7 -58 15t-52 17q-56 22 -94 50.5t-62 58.5
t-36 60.5t-16 57.5q-3 20 -3.5 45.5t6.5 55t21.5 62t41.5 67.5q60 78 171 150q44 29 90.5 53.5t89.5 44t79 33.5t60 22z" />
    <glyph glyph-name="uni0665" unicode="&#x665;" horiz-adv-x="1240" 
d="M560 1438q29 -29 70.5 -71t88.5 -94t97 -112.5t97 -126.5q219 -308 219 -537q0 -84 -28 -167t-77 -149q-24 -32 -59 -64.5t-82.5 -58.5t-109.5 -43t-140 -17q-122 0 -218 42q-92 40 -154 111q-43 49 -70 105.5t-41 113.5t-16.5 111t3.5 98q11 92 50 196.5t102 210.5
q42 70 89.5 133.5t97.5 115.5q-33 35 -59 59zM636 199q154 0 230 103q36 48 50.5 101.5t14.5 93.5q0 81 -46 188t-136 233q-32 45 -65.5 87.5t-67.5 81.5q-48 -51 -94 -115.5t-84 -135t-64.5 -143t-34.5 -139.5q-3 -21 -2 -54t9 -70.5t24 -75.5t45 -70q38 -44 92 -64.5
t129 -20.5z" />
    <glyph glyph-name="uni0666" unicode="&#x666;" horiz-adv-x="1166" 
d="M133 1461q72 -31 149 -43t150 -12q67 0 126.5 7t104.5 15t71.5 15.5t27.5 7.5l124 -109q0 -1 -5.5 -47t-10 -131.5t-4 -206.5t12.5 -272q10 -133 35.5 -245t51.5 -193.5t46 -127.5t20 -47l-175 -86q-2 4 -24.5 56.5t-51.5 142.5t-56.5 213.5t-39.5 270.5
q-15 188 -13.5 330.5t8.5 233.5q-51 -8 -113.5 -15t-132.5 -7q-91 0 -188 15.5t-191 56.5l78 178v0z" />
    <glyph glyph-name="uni0667" unicode="&#x667;" horiz-adv-x="1291" 
d="M568 -23q0 221 -42.5 416.5t-111 368t-154 324t-171.5 286.5l165 103q62 -96 114 -185t95.5 -174.5t80 -167.5t66.5 -164q10 -29 18.5 -52t15.5 -45t14 -45.5t14 -52.5q41 131 91 262.5t101 249t100.5 214.5t89.5 160l165 -103q-46 -90 -97 -188.5t-100.5 -206
t-94.5 -223.5t-80 -241t-56.5 -259t-24.5 -277h-198z" />
    <glyph glyph-name="uni0668" unicode="&#x668;" horiz-adv-x="1351" 
d="M793 1450q0 -219 42.5 -412t111 -364t154 -321t171.5 -283l-165 -102q-62 94 -114 182.5t-95.5 173t-80 166t-66.5 162.5q-10 28 -18.5 51t-15.5 45t-14 45t-14 52q-41 -130 -91 -260t-101 -246.5t-100.5 -212.5t-89.5 -158l-165 102q46 89 97 186.5t100.5 203.5
t94.5 221t80 239t56.5 256.5t24.5 273.5h198z" />
    <glyph glyph-name="uni0669" unicode="&#x669;" horiz-adv-x="1098" 
d="M329 1279q-42 -70 -51 -155q-15 -146 185 -165q80 -8 172 12q-5 122 -25 211q-7 31 -18 59q-14 34 -31 60q-43 66 -104 66q-76 0 -128 -88zM703 279q-67 256 -68 492q-217 -38 -374 58q-176 106 -147 324q15 110 65 204q55 105 140 161t188 44q102 -13 173 -87
q97 -100 125 -319q10 -82 12 -191q1 -41 0 -93v-45l-1 -43q-1 -137 52 -380q53 -246 97 -298l-56 -73q-55 -70 -65 -83q-76 82 -141 329z" />
    <glyph glyph-name="uni06F4" unicode="&#x6f4;" horiz-adv-x="1258" 
d="M796 716q-59 0 -117 10.5t-105 29.5q-32 14 -62.5 33t-55.5 42l10 -69q13 -96 20.5 -195t11.5 -197.5t5.5 -194.5t1.5 -185h-199q0 195 -7 387.5t-31 369.5t-68.5 331t-119.5 272l166 105q35 -57 66 -120t54 -127q11 33 29.5 66t43.5 61l-1 -1q56 67 137 107.5t170 44.5
q69 3 142.5 -19t145.5 -69q45 -29 72.5 -53.5t38.5 -34.5l12 -12l-143 -138l-10.5 10t-28 25t-42 32t-53.5 31t-60.5 22.5t-64.5 7.5h1q-48 -3 -91.5 -24.5t-73.5 -56.5q-17 -21 -32 -56t-9 -84q8 -44 33 -78t68 -51q29 -10 68 -17t78 -7q22 0 44.5 1.5t46.5 5.5
q67 9 119 30.5t76 39.5l88 -162q-50 -38 -110 -65t-144 -40q-31 -5 -61 -6.5t-59 -1.5z" />
    <glyph glyph-name="uni06F5" unicode="&#x6f5;" horiz-adv-x="1379" 
d="M924 -31q-73 0 -133.5 35.5t-102.5 102.5l-11 19l17 -1q-10 -16 -18 -27.5t-16 -20.5v1q-44 -53 -101.5 -80.5t-123.5 -27.5q-64 0 -125 31.5t-106 85.5q-33 41 -55 94t-30 116v-1q-4 23 -5.5 49t-1.5 53q0 100 24 216q18 81 46.5 164t70 174t98 191.5t129.5 216.5
l-37 37l140 140q11 -11 22 -22.5t25 -23.5q7 -6 14 -12.5t15 -14.5q62 -57 143 -135.5t162 -181.5q98 -125 169 -256.5t115 -271.5q29 -95 29 -200q0 -17 -0.5 -34t-2.5 -32q-8 -70 -31 -136.5t-58 -114.5q-47 -61 -114.5 -97t-145.5 -36h-1zM777 533q0 -28 3.5 -64.5
t11 -76.5t19 -78.5t28 -70.5t38 -53t48.5 -24q63 2 102 53q25 35 38.5 88.5t13.5 112.5q0 34 -5 70t-16 70q-36 111 -87 208t-109 180.5t-119 152.5t-117 123q-63 -102 -111 -190t-83.5 -167t-60.5 -151.5t-41 -142.5q-9 -46 -14.5 -93t-5.5 -84q0 -60 13 -107.5t36 -78.5
q18 -18 40.5 -29.5t35.5 -11.5q86 0 133 160q11 38 20.5 75t15.5 66q7 34 12 65z" />
    <glyph glyph-name="uni06F6" unicode="&#x6f6;" horiz-adv-x="1176" 
d="M105 45v6q0 5 2 9v-1q3 10 17 47t39 92t61.5 124t84.5 143q51 78 109 150t118 129q-61 6 -115 25.5t-97 49.5t-73 69.5t-43 85.5q-15 52 -15 108q0 89 43.5 172.5t120.5 143.5q54 41 126 68.5t144 32.5q8 1 17 1h17q73 0 146 -21t144 -63l-101 -172q-51 32 -98.5 45
t-90.5 13q-53 0 -102.5 -18.5t-81.5 -41.5q-42 -33 -64 -74.5t-22 -86.5q0 -22 8 -51q6 -16 22.5 -32t41 -29t56 -21.5t68.5 -8.5q46 -1 94.5 5t94.5 15t86 20t69 20l22 7v-1q11 4 27 9.5t27 8.5l58 -189q-15 -7 -33 -12.5t-40 -12.5l1 1q-92 -35 -170.5 -88.5t-145 -117.5
t-120.5 -134.5t-97 -139t-75 -130.5t-52.5 -109.5t-31 -76t-11.5 -29.5z" />
    <glyph glyph-name="uni066A" unicode="&#x66a;" horiz-adv-x="1217" 
d="M183 -1l593 1570h222l-595 -1570h-220zM1118 207l-202 -201l-203 203l202 201zM487 1327l-202 -201l-203 203l202 201z" />
    <glyph glyph-name="uni061F" unicode="&#x61f;" horiz-adv-x="1024" 
d="M555 913q100 -110 100 -315v-143h-186v143q0 137 -106 231q-49 41 -97.5 81.5t-98.5 80.5q-104 112 -104 279t143 284q69 56 145 84.5t162 28.5q199 0 317 -130q114 -131 114 -339h-186q0 282 -245 282q-46 0 -87.5 -14t-79.5 -44q-81 -64 -81 -151q0 -133 102 -214
q47 -37 93.5 -73t94.5 -71zM727 155l-163 -163l-155 155l162 164z" />
    <glyph glyph-name="uni060C" unicode="&#x60c;" horiz-adv-x="630" 
d="M556 149q0 -46 -39 -91q-51 -57 -132 -57q-92 0 -144 69q-48 63 -48 158q0 235 238 404q20 -14 42.5 -32t48.5 -39q-189 -137 -189 -281q26 20 86 20q127 -18 137 -151z" />
    <glyph glyph-name="uni061B" unicode="&#x61b;" horiz-adv-x="512" 
d="M374 125q0 -49 -38 -87q-38 -36 -87 -36q-51 0 -88 36q-37 37 -37 87q0 51 37 88t88 37q50 0 87 -37q38 -38 38 -88zM427 570q0 -46 -39 -91q-51 -57 -132 -57q-92 0 -144 69q-48 63 -48 158q0 236 184 354q20 -14 42.5 -32t48.5 -39q-135 -87 -135 -231q48 14 86 14
q137 0 137 -145z" />
    <glyph glyph-name="uni066B" unicode="&#x66b;" horiz-adv-x="689" 
d="M-38 -245l482 1084h144l-481 -1084h-145z" />
    <glyph glyph-name="uni066C" unicode="&#x66c;" horiz-adv-x="511" 
d="M214 -5q-31 0 -59 12t-49 33t-33 49t-12 59q0 36 13.5 64.5t37 49t54 31t63.5 10.5q93 2 146 -66q48 -62 50 -158q10 -282 -333 -454l-58 105q259 124 254 284q-35 -19 -74 -19z" />
    <glyph glyph-name="uni066D" unicode="&#x66d;" horiz-adv-x="965" 
d="M487 1098l93 -324l335 12l5 -10l-281 -188l113 -316l-9 -6l-264 207l-262 -207l-8 6l113 316l-277 186l4 12l334 -12l92 324h12z" />
    <glyph glyph-name="uni064B" unicode="&#x64b;" 
d="M468 1242l-502 -178v111l502 171v-104zM468 1501l-502 -178v111l502 171v-104z" />
    <glyph glyph-name="uni064D" unicode="&#x64d;" 
d="M468 -511l-502 -178v111l502 171v-104zM468 -252l-502 -178v111l502 171v-104z" />
    <glyph glyph-name="uni064E" unicode="&#x64e;" 
d="M468 1292l-502 -178v111l502 171v-104z" />
    <glyph glyph-name="uni064F" unicode="&#x64f;" 
d="M-61 1165q23 7 60.5 19.5t79.5 29.5t83.5 38.5t74.5 46.5l-10 4q-14 8 -28.5 14.5t-30.5 14.5q-45 22 -69 51t-33.5 58.5t-6.5 58t12 48.5q15 30 42 56.5t59 42t68 17.5t67 -13q65 -31 86 -104q15 -53 9 -108.5t-18 -93.5q9 -2 16.5 -4.5t14.5 -4.5l-28 -91q-8 2 -22.5 7
t-29.5 11q-28 -29 -63.5 -53.5t-74.5 -45t-77 -36.5t-70 -27.5t-55 -18.5t-30 -9zM247 1571q-12 0 -25 -5t-25.5 -14.5t-22.5 -21t-17 -24.5q-1 0 -3.5 -8.5t0 -22t14.5 -28.5t41 -30q15 -8 30.5 -15t29.5 -14l26 -12q4 14 7 32.5t5 38.5t0.5 40t-6.5 38q-6 15 -14 25.5
t-21 15.5q-6 5 -19 5z" />
    <glyph glyph-name="uni064C" unicode="&#x64c;" 
d="M-19 1139q7 11 13.5 31t10 43t2.5 45t-8 36q-4 6 -9.5 11t-20.5 7q-12 0 -25 -5t-23.5 -11.5t-19 -13.5t-12.5 -10l-65 65q3 4 15.5 14.5t32 23t46 21t56.5 7.5q35 -2 62.5 -19t43.5 -47q19 -34 19.5 -75.5t-7.5 -80.5q53 16 113 39.5t104 54.5l-5 5q-14 5 -28.5 12.5
t-30.5 14.5q-44 22 -67.5 50.5t-32.5 57t-6.5 56t12.5 46.5q15 31 41 56.5t57.5 41t66 17.5t65.5 -13q63 -30 85 -104q7 -24 8.5 -51t-1 -52.5t-7.5 -49t-10 -42.5q9 -2 16.5 -4.5t13.5 -3.5l-27 -89l-50 15q-28 -27 -64.5 -49.5t-76 -40.5t-78.5 -32t-72.5 -23.5
t-56.5 -15.5t-30 -7zM323 1540q-22 0 -49 -18.5t-41 -43.5l-2 -8.5t0.5 -21.5t14.5 -28t40 -29q15 -9 30 -15t28 -14l25 -12q3 13 7 31.5t5.5 38t0.5 39.5t-6 37q-11 27 -35 41l-8 2t-10 1z" />
    <glyph glyph-name="uni0650" unicode="&#x650;" 
d="M468 -252l-502 -178v111l502 171v-104z" />
    <glyph glyph-name="uni0651" unicode="&#x651;" 
d="M105 1052q-30 1 -52 7.5t-38 16t-27 20.5t-17 22q-18 30 -20 64.5t4 65t15 54t14 31.5l77 -36q-6 -13 -12 -31t-9.5 -37t-3 -36.5t7.5 -29.5q6 -10 20.5 -16.5t31.5 -8t34 2.5t26 16q13 15 20 37t9.5 46t2 46t-0.5 36q21 3 38 5q14 2 26.5 3t12.5 -1q7 -63 17.5 -99
t22.5 -53.5t24 -21.5t21 -4q41 3 54 31.5t8 66t-23 76t-39 63.5l71 49q6 -9 23 -36t32 -62.5t23 -74.5t-3 -73t-28 -57.5t-37.5 -38.5t-42.5 -21.5t-42 -6.5q-23 0 -53.5 10t-55.5 42q-23 -32 -54 -49.5t-71 -17.5h-6z" />
    <glyph glyph-name="uni0652" unicode="&#x652;" 
d="M207 1227q19 0 36.5 10.5t30.5 27t20.5 36.5t7.5 39t-7.5 38.5t-20.5 36t-30.5 27t-36.5 10.5q-20 0 -37 -10.5t-30.5 -27t-21 -36t-7.5 -38.5t7.5 -39t21 -36.5t30.5 -27t37 -10.5zM207 1559q40 0 78 -19t67 -53q27 -32 41.5 -70t14.5 -77q0 -38 -14.5 -76.5
t-41.5 -70.5q-29 -35 -67 -54t-78 -19q-41 0 -79 19t-67 54q-27 32 -41.5 70.5t-14.5 76.5q0 39 14.5 77t41.5 70q29 34 67 53t79 19z" />
    <glyph glyph-name="uni0653" unicode="&#x653;" 
d="M-164 1283q1 2 5 13.5t10.5 27t14 33t15.5 31.5q32 51 74 81.5t87 38.5q10 2 22 2.5t21 0.5q44 0 79.5 -11t66.5 -24q27 -11 53.5 -19t57.5 -9q24 -1 47 11t42 28t33 32t20 24l114 -74q-1 -2 -10 -15t-25.5 -31.5t-39.5 -39t-51.5 -37.5t-62.5 -28t-72 -10q-40 1 -75 11
t-65 21l-16 6q-32 12 -59 20t-58 3q-18 -2 -34 -17.5t-28.5 -36t-21 -41t-12.5 -32.5z" />
    <glyph glyph-name="uni0654" unicode="&#x654;" 
d="M338 1722q-12 3 -27 6q-13 2 -29.5 4.5t-35.5 2.5q-15 0 -30.5 -2.5t-31.5 -9.5v2q-32 -14 -51.5 -42.5t-19.5 -61.5q0 -17 8 -36l-1 1q14 -35 49.5 -58.5t78.5 -23.5q11 0 21 1t21 6q26 8 51 21t45 25q23 14 43 29l59 -78q-39 -29 -98 -62t-144 -80l-227 -126l-48 87
l179 100q-41 17 -72.5 49t-48.5 71q-14 34 -14 74q0 31 9.5 60.5t27 55t42 45.5t54.5 32q47 19 98 19q23 0 44 -3t38 -7q19 -4 38 -9z" />
    <glyph glyph-name="uni0655" unicode="&#x655;" 
d="M333 -156q-12 3 -27 6q-13 2 -29.5 4.5t-35.5 2.5q-15 0 -30.5 -2.5t-31.5 -9.5v2q-32 -14 -51.5 -42.5t-19.5 -61.5q0 -17 8 -36l-1 1q14 -35 49.5 -58.5t78.5 -23.5q11 0 21 1t21 6q26 8 51 21t45 25q23 14 43 29l59 -78q-39 -29 -98 -62t-144 -80l-227 -126l-48 87
l179 100q-41 17 -72.5 49t-48.5 71q-14 34 -14 74q0 31 9.5 60.5t27 55t42 45.5t54.5 32q47 19 98 19q23 0 44 -3t38 -7q19 -4 38 -9z" />
    <glyph glyph-name="uni0670" unicode="&#x670;" 
d="M-15 1159q26 94 24.5 194t-24.5 189l96 30q23 -79 25.5 -189.5t-26.5 -253.5z" />
    <glyph glyph-name="uni0656" unicode="&#x656;" 
d="M161 -628q26 94 24.5 194t-24.5 189l96 30q23 -79 25.5 -189.5t-26.5 -253.5z" />
    <glyph glyph-name="uni0615" unicode="&#x615;" 
d="M163 917q-15 0 -28.5 0.5t-25.5 1.5h-3q-67 3 -133.5 17.5t-138.5 42.5l32 79q29 -11 56 -19.5t54 -15.5l53 72l3 4q6 37 8.5 66t3 57.5t-1.5 60.5t-5 75q-4 46 -7.5 85.5t-7.5 68.5q-4 34 -8 62l84 16l3 -24t6.5 -57.5t7.5 -71t6 -64.5q3 -36 4 -52t2 -28.5t1 -31
t1 -58.5q103 97 197 112q31 5 66 -1.5t64 -23.5t48.5 -45t21.5 -65q2 -23 -3 -46t-14 -43t-20.5 -37t-23.5 -29l-1 -2q-38 -35 -77.5 -55.5t-78.5 -32t-75.5 -15t-69.5 -3.5zM70 1007q21 -3 40 -3h2q31 -1 67 -1t74 7t76.5 24t75.5 50q27 24 33.5 52.5t-3.5 51t-34.5 36
t-60.5 7.5q-44 -7 -96 -43t-109 -100q-11 -12 -20 -23l-18 -22z" />
    <glyph glyph-name="wasla" 
d="M310 1460q16 16 20 36q4 22 -10 41q-19 24 -56 24q-17 0 -36 -5q-50 -15 -92 -60q-31 -33 -55 -79q35 -3 65 -3q107 0 158 41q2 2 6 5zM412 1549q16 -44 -3 -93q-17 -44 -55 -72q-39 -29 -99 -43q-41 -9 -97 -12l-22 -1h-25q-40 0 -69 5q-43 8 -72 27q-6 5 -13 10l-10 11
q-20 20 -35 20h-7q-23 -3 -49 -15q-19 -9 -41 -24l-13 -8l-20 79q-3 11 7 18q4 3 10 5l5 2l4 1l3 1l2 1q57 24 99 24q52 0 88 -35q32 58 67 98q48 55 106 80q44 19 90 19q107 0 146 -90l1 -3z" />
    <glyph glyph-name="beh_dotless_alt.init" horiz-adv-x="843" 
d="M-98 98q0 42 28.5 70t69.5 28h111q35 -1 76 -0.5t83 4.5t82.5 11.5t74.5 21t60 33.5t39 48q20 43 11.5 122.5t-40.5 185.5q-11 32 -25.5 69.5t-28.5 69.5q-16 38 -33 75l178 88q0 -1 9.5 -20.5t23.5 -52.5t31 -76.5t32 -92.5q93 -287 23 -448q-71 -161 -252 -212
q-27 -8 -69 -12.5t-86 -6.5t-84 -2.5t-62 -0.5h-145h-9q-41 0 -69.5 28t-28.5 70z" />
    <glyph glyph-name="beh_dotless_alt.medi" horiz-adv-x="852" 
d="M-105 98q0 42 28 70.5t70 28.5h76q84 0 161 10t135.5 37t92.5 73.5t31 119.5q-2 56 -9.5 116t-29.5 137l187 53q9 -35 17 -73.5t14 -78.5t10.5 -80.5t6.5 -79.5q2 -37 9 -78t25 -76t49.5 -58t82.5 -23q42 0 71 -28t29 -70q0 -21 -8 -38.5t-21.5 -31t-31 -21t-37.5 -7.5
q-101 0 -167 36.5t-108 91.5q-36 -35 -93 -59.5t-125.5 -39.5t-143.5 -22t-147 -7h-76q-42 0 -70 28t-28 70z" />
    <glyph glyph-name="onedot.below" horiz-adv-x="1024" 
d="M603 -358l-163 -163l-164 164l163 163z" />
    <glyph glyph-name="twodots.below" horiz-adv-x="1024" 
d="M465 -363l-162 -162l-164 163l162 163zM891 -364l-162 -163l-164 164l162 162z" />
    <glyph glyph-name="alef_alt.isol" horiz-adv-x="509" 
d="M356 1447q34 -399 40 -720q11 -530 -16 -727l-197 11q28 311 20 614q-14 524 -43 792z" />
    <glyph glyph-name="alef_alt.fina" horiz-adv-x="640" 
d="M645 0q-110 0 -188.5 26t-132.5 80q-33 33 -50.5 71t-26 75t-9.5 70.5t-1 57.5v19q0 1 1 36.5t1.5 91t0.5 124.5t-1 157q0 86 -2 169t-6 160t-11 150.5t-16 120.5l196 36q9 -51 16 -125t11.5 -151t6.5 -161.5t2 -174.5q1 -88 1 -159v-129t-0.5 -99t-0.5 -49v-18
q-1 -44 3 -77.5t27 -55.5q22 -23 64.5 -35.5t105.5 -13.5h9q20 0 38 -7.5t31.5 -21t21.5 -31.5t8 -38q0 -42 -29 -70t-70 -28z" />
    <glyph glyph-name="uni06D5" unicode="&#x6d5;" horiz-adv-x="983" 
d="M485 0q-5 0 -24.5 1t-48.5 5.5t-65.5 14t-73.5 27.5q-95 44 -144.5 120t-49.5 179q0 180 163 377q33 39 63.5 70t53.5 52q-30 27 -48 42t-18 16l126 153q1 -2 21.5 -19t52.5 -47t73 -70.5t84 -88.5q122 -139 182.5 -260.5t60.5 -224.5t-45.5 -179t-133.5 -119
q-32 -16 -65 -25.5t-63 -15t-56.5 -7t-44.5 -1.5zM497 704q-29 -26 -67.5 -66t-72.5 -88t-57.5 -100.5t-23.5 -102.5q0 -15 2.5 -31t11 -31.5t24.5 -30.5t43 -27q19 -9 39 -14.5t37 -8.5t31 -4t21 -1q9 0 25.5 0.5t36 3t40 8t39.5 14.5q37 20 53.5 48.5t16.5 73.5
q0 65 -50 156t-145 197q-1 1 -1.5 2t-2.5 2z" />
    <glyph glyph-name="heh_ae.fina" horiz-adv-x="1090" 
d="M642 702q-24 -10 -57 -24.5t-68.5 -33t-70 -41t-62 -48t-44.5 -55t-17 -61.5q0 -33 20.5 -53.5t53 -32t73.5 -15.5t82.5 -3.5t79 4.5t63.5 9q-12 58 -24.5 142t-28.5 212zM544 140q-258 0 -359 125q-28 34 -39.5 72.5t-13 75.5t4.5 69t15 53q27 56 64.5 103t80 84.5
t88 67t88 51.5t80.5 38t66 26q-8 76 -11.5 111.5t-3.5 36.5l196 41v1q1 -9 4 -37t7 -66.5t8.5 -82t8.5 -81.5t7 -66t4 -35q15 -129 28 -211t23 -130.5t16.5 -69.5t9.5 -27q12 -27 27.5 -45t36.5 -28.5t48 -15t62 -4.5q41 0 70 -28t29 -70q0 -20 -8 -38t-21.5 -31.5
t-31.5 -21t-38 -7.5q-38 0 -90.5 6.5t-104.5 30.5q-80 38 -132 122q-62 -10 -116 -14.5t-103 -4.5z" />
    <glyph glyph-name="uni06C2" unicode="&#x6c2;" horiz-adv-x="1373" 
d="M1367 196q41 0 69.5 -28.5t28.5 -69.5t-28.5 -69.5t-69.5 -28.5h-9q-74 1 -133.5 25t-110.5 62t-95.5 86.5t-87.5 98.5q-33 38 -66 74.5t-67.5 65t-72 45.5t-79.5 17q-36 0 -78 -13q-50 -17 -89.5 -55.5t-71.5 -92.5t-57 -120.5t-44 -138.5l-190 50q25 94 59 181.5
t81 160t109.5 125t144.5 78.5q36 11 70 16t66 5q72 0 133 -24t113.5 -62t98.5 -86.5t88 -97.5q32 -37 66 -73.5t69.5 -65.5t73.5 -47t79 -18zM453 1092q-12 3 -27 6q-13 2 -29.5 4.5t-35.5 2.5q-15 0 -30.5 -2.5t-31.5 -9.5v2q-32 -14 -51.5 -42.5t-19.5 -61.5q0 -17 8 -36
l-1 1q14 -35 49.5 -58.5t78.5 -23.5q11 0 21 1t21 6q26 8 51 21t45 25q23 14 43 29l59 -78q-39 -29 -98 -62t-144 -80l-227 -126l-48 87l179 100q-41 17 -72.5 49t-48.5 71q-14 34 -14 74q0 31 9.5 60.5t27 55t42 45.5t54.5 32q47 19 98 19q23 0 44 -3t38 -7q19 -4 38 -9z
" />
    <glyph glyph-name="uni06C3" unicode="&#x6c3;" horiz-adv-x="1368" 
d="M1365 196q41 0 69.5 -28.5t28.5 -69.5t-28.5 -69.5t-69.5 -28.5h-9q-74 1 -133.5 25t-110.5 62t-95.5 86.5t-87.5 98.5q-33 38 -66 74.5t-67.5 65t-72 45.5t-79.5 17q-36 0 -78 -13q-50 -17 -89.5 -55.5t-71.5 -92.5t-57 -120.5t-44 -138.5l-190 50q25 94 59 181.5
t81 160t109.5 125t144.5 78.5q36 11 70 16t66 5q72 0 133 -24t113.5 -62t98.5 -86.5t88 -97.5q32 -37 66 -73.5t69.5 -65.5t73.5 -47t79 -18zM551 975l-162 -162l-164 163l162 163zM961 974l-162 -163l-164 164l162 162z" />
    <glyph glyph-name="uni06F0" unicode="&#x6f0;" horiz-adv-x="980" 
d="M170 562q0 70 26.5 131.5t72.5 108t107.5 73.5t132.5 27q70 0 131.5 -27t108 -73.5t73.5 -108t27 -131.5q0 -71 -27 -132.5t-73.5 -107.5t-108 -72.5t-131.5 -26.5q-71 0 -132.5 26.5t-107.5 72.5t-72.5 107.5t-26.5 132.5zM333 562q0 -36 14 -68t38 -56t56 -38t68 -14
t68.5 14t56.5 38t38 56t14 68t-14 68.5t-38 56.5t-56.5 38t-68.5 14t-68 -14t-56 -38t-38 -56.5t-14 -68.5z" />
    <glyph glyph-name="uni06F1" unicode="&#x6f1;" horiz-adv-x="724" 
d="M347 -26q0 195 -7 387.5t-31 369.5t-68.5 331t-119.5 272l166 106q82 -130 136.5 -303t83.5 -391q12 -94 19.5 -194t12 -199.5t6 -195.5t1.5 -183h-199z" />
    <glyph glyph-name="uni06F2" unicode="&#x6f2;" horiz-adv-x="1116" 
d="M981 1462q0 -2 3 -20t6 -46t5 -64.5t1 -76.5q-5 -232 -109 -354v1q-50 -61 -120.5 -92t-156.5 -31q-47 0 -86 6.5t-77 21.5q2 -14 4 -27.5t4 -27.5q12 -94 19.5 -193.5t12 -199t6 -196t1.5 -183.5h-199q0 159 -3 316.5t-16 306t-38.5 284t-70.5 249.5q-21 53 -45 102.5
t-54 101.5l167 106q16 -26 30 -52.5t27 -55t27 -60.5t31 -69q23 -53 45.5 -95.5t52 -73.5t68 -47.5t94.5 -16.5q42 0 72.5 12.5t52.5 38.5q19 22 31 51.5t19.5 62.5t10.5 68t3 68q0 43 -4.5 83t-9.5 66z" />
    <glyph glyph-name="uni06F3" unicode="&#x6f3;" horiz-adv-x="1450" 
d="M1301 1473q16 -86 24.5 -159t8.5 -134q0 -191 -81 -290q-38 -45 -90.5 -69t-116.5 -24q-25 0 -53 5.5t-57 19t-57 37.5t-53 60l-20 -30q-48 -54 -104 -82t-133 -28q-38 0 -66 4.5t-59 15.5q2 -13 3.5 -24t3.5 -23q13 -96 20.5 -195t11.5 -197t5.5 -194t1.5 -185h-199
q2 41 2.5 85.5t0.5 84.5q0 144 -10 283t-29.5 268t-49.5 247t-70 221q-2 4 -6 14q-2 4 -3 8q-16 38 -34.5 75.5t-41.5 73.5l181 107q7 -12 16.5 -29t19.5 -37t20 -41.5t20 -41.5q23 -48 47 -101q27 -62 47.5 -104t42.5 -68t51 -37.5t74 -11.5q33 0 50.5 10t34.5 31
q28 32 44.5 92t18.5 141q0 11 -1 38.5t-3 57.5t-3.5 55.5t-2.5 31.5l198 24v-9t1 -10q2 -11 4.5 -35.5t4.5 -57.5q6 -61 16.5 -129t26.5 -120q13 -35 26 -55.5t25 -30.5t21.5 -12.5t15.5 -2.5q26 0 37.5 6.5t16.5 13.5q5 6 11.5 17.5t12 31t9.5 48t4 68.5q0 44 -7 106.5
t-23 148.5z" />
    <glyph glyph-name="uni06F9" unicode="&#x6f9;" horiz-adv-x="1107" 
d="M333 1276q-42 -70 -51 -155q-15 -146 185 -165q80 -8 172 12q-5 122 -25 211q-7 31 -18 59q-14 34 -31 60q-43 66 -104 66q-76 0 -128 -88zM707 276q-67 256 -68 492q-217 -38 -374 58q-176 106 -147 324q15 110 65 204q55 105 140 161t188 44q102 -13 173 -87
q97 -100 125 -319q10 -82 12 -191q1 -41 0 -93v-45l-1 -43q-1 -137 52 -380q53 -246 97 -298l-56 -73q-55 -70 -65 -83q-76 82 -141 329z" />
    <glyph glyph-name="uni06F7" unicode="&#x6f7;" horiz-adv-x="1319" 
d="M568 -23q0 221 -42.5 416.5t-111 368t-154 324t-171.5 286.5l165 103q62 -96 114 -185t95.5 -174.5t80 -167.5t66.5 -164q10 -29 18.5 -52t15.5 -45t14 -45.5t14 -52.5q41 131 91 262.5t101 249t100.5 214.5t89.5 160l165 -103q-46 -90 -97 -188.5t-100.5 -206
t-94.5 -223.5t-80 -241t-56.5 -259t-24.5 -277h-198z" />
    <glyph glyph-name="uni06F8" unicode="&#x6f8;" horiz-adv-x="1362" 
d="M793 1450q0 -219 42.5 -412t111 -364t154 -321t171.5 -283l-165 -102q-62 94 -114 182.5t-95.5 173t-80 166t-66.5 162.5q-10 28 -18.5 51t-15.5 45t-14 45t-14 52q-41 -130 -91 -260t-101 -246.5t-100.5 -212.5t-89.5 -158l-165 102q46 89 97 186.5t100.5 203.5
t94.5 221t80 239t56.5 256.5t24.5 273.5h198z" />
    <glyph glyph-name="uni06F4.urdu" horiz-adv-x="1260" 
d="M1054 1424q5 -12 18 -34.5t27 -45.5q16 -26 34 -56q-68 -58 -131 -132q-27 -32 -56 -70t-56.5 -81.5t-53 -92.5t-44.5 -102l-117 -37q-35 167 -114 281q-40 57 -81 89.5t-82 24.5q-37 -6 -52 -34t-15 -59q0 -25 6 -58t19.5 -76.5t36 -98t55.5 -122.5l88 -180
q36 -80 62.5 -154.5t44.5 -140t27.5 -120t10.5 -93.5l-153 -42q-15 97 -43 195.5t-73 203.5q-43 100 -82.5 189.5t-82.5 182.5q-20 42 -38 91.5t-30 102t-14.5 105t8.5 101t38.5 90t76.5 71.5q20 13 59 24t85 11.5t94 -14.5t87 -54q40 -40 71.5 -97t59.5 -127q17 46 52 99.5
t78.5 104t91 92t88.5 63.5z" />
    <glyph glyph-name="uni06F7.urdu" horiz-adv-x="1039" 
d="M887 55q-25 -8 -48 -14q-20 -5 -41 -10t-36 -7q-30 -6 -69 -10t-83 -6.5t-91 -4t-93 -1.5q-21 0 -41 0.5t-40.5 2t-42.5 4t-49 5.5q-54 5 -95.5 11t-64.5 13q-10 42 -15.5 85t-5.5 88q0 95 35 193t96 201q30 51 69.5 112t90.5 133t116.5 155.5t148.5 180.5q12 14 29 34.5
t36 43t38 44.5t35 39q12 -13 29.5 -33.5t34.5 -40.5q19 -24 41 -49q-22 -27 -43 -53q-18 -22 -38 -46t-34 -42l-240 -312q-78 -102 -131.5 -187.5t-87 -153.5t-48 -117t-14.5 -77q7 -3 20 -6t28 -5t29.5 -4.5t25.5 -3.5q27 -4 47.5 -6.5t39.5 -4t38.5 -2t44.5 -0.5
q99 0 193.5 11.5t185.5 25.5v-186z" />
    <glyph glyph-name="Ghunna_above" 
d="M257 1123q-48 0 -89.5 14.5t-72.5 41.5q-29 26 -47.5 61t-25.5 77q-3 21 -3 44q0 32 5.5 56.5t13.5 47.5q6 18 8.5 29t4.5 18.5t5 13t9 13.5l93 -33q-13 -18 -26 -56t-13 -90q0 -6 0.5 -14t1.5 -15q2 -13 10 -31t24.5 -34.5t44 -29t69.5 -13.5h-2q139 6 168 94q9 31 9 65
q0 33 -9 64t-19.5 54t-20 37t-10.5 14l93 72q2 -2 12.5 -23t22.5 -54t22 -75.5t10 -88.5q0 -23 -3.5 -46.5t-11.5 -49.5q-11 -35 -33 -64t-53 -49v1q-35 -23 -77.5 -36t-95.5 -15h-14v0z" />
    <glyph glyph-name="uni0651064B" 
d="M116 1062q-30 1 -52 7.5t-38 16t-27 20.5t-17 22q-18 30 -20 64.5t4 65t15 54t14 31.5l77 -36q-6 -13 -12 -31t-9.5 -37t-3 -36.5t7.5 -29.5q6 -10 20.5 -16.5t31.5 -8t34 2.5t26 16q13 15 20 37t9.5 46t2 46t-0.5 36q21 3 38 5q14 2 26.5 3t12.5 -1q7 -63 17.5 -99
t22.5 -53.5t24 -21.5t21 -4q41 3 54 31.5t8 66t-23 76t-39 63.5l71 49q6 -9 23 -36t32 -62.5t23 -74.5t-3 -73t-28 -57.5t-37.5 -38.5t-42.5 -21.5t-42 -6.5q-23 0 -53.5 10t-55.5 42q-23 -32 -54 -49.5t-71 -17.5h-6zM486 1589l-502 -178v111l502 171v-104zM486 1848
l-502 -178v111l502 171v-104z" />
    <glyph glyph-name="uni0654064B" 
d="M338 1722q-12 3 -27 6q-13 2 -29.5 4.5t-35.5 2.5q-15 0 -30.5 -2.5t-31.5 -9.5v2q-32 -14 -51.5 -42.5t-19.5 -61.5q0 -17 8 -36l-1 1q14 -35 49.5 -58.5t78.5 -23.5q11 0 21 1t21 6q26 8 51 21t45 25q23 14 43 29l59 -78q-39 -29 -98 -62t-144 -80l-227 -126l-48 87
l179 100q-41 17 -72.5 49t-48.5 71q-14 34 -14 74q0 31 9.5 60.5t27 55t42 45.5t54.5 32q47 19 98 19q23 0 44 -3t38 -7q19 -4 38 -9zM418 2006l-502 -178v111l502 171v-104zM418 2265l-502 -178v111l502 171v-104z" />
    <glyph glyph-name="uni0654064E" 
d="M338 1722q-12 3 -27 6q-13 2 -29.5 4.5t-35.5 2.5q-15 0 -30.5 -2.5t-31.5 -9.5v2q-32 -14 -51.5 -42.5t-19.5 -61.5q0 -17 8 -36l-1 1q14 -35 49.5 -58.5t78.5 -23.5q11 0 21 1t21 6q26 8 51 21t45 25q23 14 43 29l59 -78q-39 -29 -98 -62t-144 -80l-227 -126l-48 87
l179 100q-41 17 -72.5 49t-48.5 71q-14 34 -14 74q0 31 9.5 60.5t27 55t42 45.5t54.5 32q47 19 98 19q23 0 44 -3t38 -7q19 -4 38 -9zM459 2045l-502 -178v111l502 171v-104z" />
    <glyph glyph-name="uni0654064C" 
d="M338 1722q-12 3 -27 6q-13 2 -29.5 4.5t-35.5 2.5q-15 0 -30.5 -2.5t-31.5 -9.5v2q-32 -14 -51.5 -42.5t-19.5 -61.5q0 -17 8 -36l-1 1q14 -35 49.5 -58.5t78.5 -23.5q11 0 21 1t21 6q26 8 51 21t45 25q23 14 43 29l59 -78q-39 -29 -98 -62t-144 -80l-227 -126l-48 87
l179 100q-41 17 -72.5 49t-48.5 71q-14 34 -14 74q0 31 9.5 60.5t27 55t42 45.5t54.5 32q47 19 98 19q23 0 44 -3t38 -7q19 -4 38 -9zM-64 1944q7 11 13.5 31t10 43t2.5 45t-8 36q-4 6 -9.5 11t-20.5 7q-12 0 -25 -5t-23.5 -11.5t-19 -13.5t-12.5 -10l-65 65q3 4 15.5 14.5
t32 23t46 21t56.5 7.5q35 -2 62.5 -19t43.5 -47q19 -34 19.5 -75.5t-7.5 -80.5q53 16 113 39.5t104 54.5l-5 5q-14 5 -28.5 12.5t-30.5 14.5q-44 22 -67.5 50.5t-32.5 57t-6.5 56t12.5 46.5q15 31 41 56.5t57.5 41t66 17.5t65.5 -13q63 -30 85 -104q7 -24 8.5 -51t-1 -52.5
t-7.5 -49t-10 -42.5q9 -2 16.5 -4.5t13.5 -3.5l-27 -89l-50 15q-28 -27 -64.5 -49.5t-76 -40.5t-78.5 -32t-72.5 -23.5t-56.5 -15.5t-30 -7zM278 2345q-22 0 -49 -18.5t-41 -43.5l-2 -8.5t0.5 -21.5t14.5 -28t40 -29q15 -9 30 -15t28 -14l25 -12q3 13 7 31.5t5.5 38
t0.5 39.5t-6 37q-11 27 -35 41l-8 2t-10 1z" />
    <glyph glyph-name="uni0654064F" 
d="M338 1722q-12 3 -27 6q-13 2 -29.5 4.5t-35.5 2.5q-15 0 -30.5 -2.5t-31.5 -9.5v2q-32 -14 -51.5 -42.5t-19.5 -61.5q0 -17 8 -36l-1 1q14 -35 49.5 -58.5t78.5 -23.5q11 0 21 1t21 6q26 8 51 21t45 25q23 14 43 29l59 -78q-39 -29 -98 -62t-144 -80l-227 -126l-48 87
l179 100q-41 17 -72.5 49t-48.5 71q-14 34 -14 74q0 31 9.5 60.5t27 55t42 45.5t54.5 32q47 19 98 19q23 0 44 -3t38 -7q19 -4 38 -9zM-40 1943q23 7 60.5 19.5t79.5 29.5t83.5 38.5t74.5 46.5l-10 4q-14 8 -28.5 14.5t-30.5 14.5q-45 22 -69 51t-33.5 58.5t-6.5 58t12 48.5
q15 30 42 56.5t59 42t68 17.5t67 -13q65 -31 86 -104q15 -53 9 -108.5t-18 -93.5q9 -2 16.5 -4.5t14.5 -4.5l-28 -91q-8 2 -22.5 7t-29.5 11q-28 -29 -63.5 -53.5t-74.5 -45t-77 -36.5t-70 -27.5t-55 -18.5t-30 -9zM268 2349q-12 0 -25 -5t-25.5 -14.5t-22.5 -21t-17 -24.5
q-1 0 -3.5 -8.5t0 -22t14.5 -28.5t41 -30q15 -8 30.5 -15t29.5 -14l26 -12q4 14 7 32.5t5 38.5t0.5 40t-6.5 38q-6 15 -14 25.5t-21 15.5q-6 5 -19 5z" />
    <glyph glyph-name="uni06540652" 
d="M338 1722q-12 3 -27 6q-13 2 -29.5 4.5t-35.5 2.5q-15 0 -30.5 -2.5t-31.5 -9.5v2q-32 -14 -51.5 -42.5t-19.5 -61.5q0 -17 8 -36l-1 1q14 -35 49.5 -58.5t78.5 -23.5q11 0 21 1t21 6q26 8 51 21t45 25q23 14 43 29l59 -78q-39 -29 -98 -62t-144 -80l-227 -126l-48 87
l179 100q-41 17 -72.5 49t-48.5 71q-14 34 -14 74q0 31 9.5 60.5t27 55t42 45.5t54.5 32q47 19 98 19q23 0 44 -3t38 -7q19 -4 38 -9zM203 2019q19 0 36.5 10.5t30.5 27t20.5 36.5t7.5 39t-7.5 38.5t-20.5 36t-30.5 27t-36.5 10.5q-20 0 -37 -10.5t-30.5 -27t-21 -36
t-7.5 -38.5t7.5 -39t21 -36.5t30.5 -27t37 -10.5zM203 2351q40 0 78 -19t67 -53q27 -32 41.5 -70t14.5 -77q0 -38 -14.5 -76.5t-41.5 -70.5q-29 -35 -67 -54t-78 -19q-41 0 -79 19t-67 54q-27 32 -41.5 70.5t-14.5 76.5q0 39 14.5 77t41.5 70q29 34 67 53t79 19z" />
    <glyph glyph-name="uni0655064D" 
d="M334 -644q-12 3 -27 6q-13 2 -29.5 4.5t-35.5 2.5q-15 0 -30.5 -2.5t-31.5 -9.5v2q-32 -14 -51.5 -42.5t-19.5 -61.5q0 -17 8 -36l-1 1q14 -35 49.5 -58.5t78.5 -23.5q11 0 21 1t21 6q26 8 51 21t45 25q23 14 43 29l59 -78q-39 -29 -98 -62t-144 -80l-227 -126l-48 87
l179 100q-41 17 -72.5 49t-48.5 71q-14 34 -14 74q0 31 9.5 60.5t27 55t42 45.5t54.5 32q47 19 98 19q23 0 44 -3t38 -7q19 -4 38 -9zM465 -1406l-502 -178v111l502 171v-104zM465 -1147l-502 -178v111l502 171v-104z" />
    <glyph glyph-name="uni06550650" 
d="M327 -657q-12 3 -27 6q-13 2 -29.5 4.5t-35.5 2.5q-15 0 -30.5 -2.5t-31.5 -9.5v2q-32 -14 -51.5 -42.5t-19.5 -61.5q0 -17 8 -36l-1 1q14 -35 49.5 -58.5t78.5 -23.5q11 0 21 1t21 6q26 8 51 21t45 25q23 14 43 29l59 -78q-39 -29 -98 -62t-144 -80l-227 -126l-48 87
l179 100q-41 17 -72.5 49t-48.5 71q-14 34 -14 74q0 31 9.5 60.5t27 55t42 45.5t54.5 32q47 19 98 19q23 0 44 -3t38 -7q19 -4 38 -9zM485 -1166l-502 -178v111l502 171v-104z" />
    <glyph glyph-name="diagonal" horiz-adv-x="1024" 
d="M905 1722l-804 -340l7 128l750 313z" />
    <glyph glyph-name="uni200C" unicode="&#x200c;" horiz-adv-x="170" 
 />
    <glyph glyph-name="exclam" unicode="!" horiz-adv-x="579" 
d="M215 461l-38 872v304h231v-304l-26 -872h-167zM448 155l-163 -163l-155 155l162 164z" />
    <glyph glyph-name="quotedbl" unicode="&#x22;" horiz-adv-x="793" 
d="M293 1146h-122v293l1 293h157v-158zM621 1146h-123v293l1 293h157v-158z" />
    <glyph glyph-name="numbersign" unicode="#" horiz-adv-x="1526" 
d="M602 381l-97 -496h-161l97 496h-291v154h320l86 441h-314v156h344l99 503h161l-99 -503h332l99 503h162l-99 -503h248v-156h-278l-86 -441h273v-154h-302l-97 -496h-163l97 496h-331zM962 535l86 441h-331l-86 -441h331z" />
    <glyph glyph-name="dollar" unicode="$" horiz-adv-x="1392" 
d="M961 525q-80 78 -265 140q-255 78 -372 203q-117 124 -117 317q0 195 114 322q114 125 319 149v265h169v-265q204 -28 315 -168q113 -142 114 -383h-210q0 166 -83 269q-86 103 -224 103q-146 0 -224 -76q-78 -75 -78 -212q0 -126 82 -202q83 -74 266 -135
q184 -59 287 -131q200 -136 200 -386q0 -201 -123 -325q-122 -123 -344 -146v-231h-167v231q-228 20 -355 158q-126 138 -126 370h212q2 -168 92 -259t253 -91q161 0 253 78q93 78 93 213q0 113 -81 192z" />
    <glyph glyph-name="percent" unicode="%" horiz-adv-x="1816" 
d="M133 1303q0 154 99 257v-1q100 102 256 102q157 0 255 -102q100 -103 100 -264v-86q0 -156 -101 -256q-99 -100 -252 -100t-256 100h1q-102 100 -102 265v85zM288 1209q0 -96 55 -159t147 -63q90 0 143 61q55 61 55 166v89q0 97 -54 159q-55 64 -146 64q-92 0 -146 -63
t-54 -165v-89zM991 311q0 154 100 256q100 101 255 101t256 -100q100 -101 100 -265v-86q0 -156 -100 -257q-97 -100 -253 -100q-155 0 -257 100q-101 97 -101 264v87zM1146 217q0 -98 55 -161t148 -63q90 0 143 61q54 62 54 168v89q0 99 -55 161t-145 62t-144 -62
q-56 -62 -56 -166v-89zM422 94l855 1367l30 -19l28 -18q38 -24 58 -37l-854 -1366z" />
    <glyph glyph-name="ampersand" unicode="&#x26;" horiz-adv-x="1541" 
d="M197 582q71 107 275 251q-116 141 -160 233q-40 88 -40 171q0 197 117 310q116 113 318 113q180 0 297 -106q116 -103 116 -261q0 -104 -54 -194q-50 -85 -186 -187l-134 -100l402 -480q87 165 87 354h190q-2 -302 -150 -506l245 -295h-251l-120 142q-187 -166 -457 -166
q-254 0 -410 135q-154 134 -154 356q0 125 69 230zM1027 173l-437 523l-45 -33q-205 -151 -205 -311q0 -146 95 -233q94 -88 257 -88q182 0 335 142zM632 945l148 105q83 60 113 111q32 52 32 132q0 82 -63 139q-68 56 -156 56q-102 0 -162 -70q-60 -71 -60 -174
q0 -120 148 -299z" />
    <glyph glyph-name="quotesingle" unicode="'" horiz-adv-x="432" 
d="M275 1165h-144v283l1 284h168v-128z" />
    <glyph glyph-name="parenleft" unicode="(" horiz-adv-x="886" 
d="M254 1300q164 340 458 535q10 -18 23 -38l22 -36l23 -36q12 -21 23 -39q-245 -206 -364 -457q-131 -273 -136 -644q0 -622 500 -1089l-103 -156q-280 221 -439 541q-165 335 -165 713q0 379 158 706z" />
    <glyph glyph-name="parenright" unicode=")" horiz-adv-x="893" 
d="M623 -119q-158 -320 -438 -541l-26 40l-25 39q-31 48 -52 77q500 467 500 1089q-5 371 -136 644q-119 251 -364 457q11 18 23 39l23 36q29 48 45 74q291 -196 456 -537q160 -330 160 -704q0 -378 -166 -713z" />
    <glyph glyph-name="asterisk" unicode="*" horiz-adv-x="1068" 
d="M41 1183l13 43l13 41l13 42l13 43l368 -137l-11 420h173l-12 -426l361 135l27 -86l13 -43l13 -42l-374 -111l241 -331l-140 -106l-227 351q-41 -64 -109 -171l-55 -87q-32 -50 -55 -85l-141 103l244 337z" />
    <glyph glyph-name="plus" unicode="+" horiz-adv-x="1405" 
d="M1296 818v-199h-491v-557h-213v557h-492v199h492v515h213v-515h491z" />
    <glyph glyph-name="comma" unicode="," horiz-adv-x="487" 
d="M44 -384q110 156 116 326v196h207v-169q0 -122 -60 -243q-58 -118 -145 -191z" />
    <glyph glyph-name="hyphen" unicode="-" horiz-adv-x="684" 
d="M51 542v171h578v-171h-578z" />
    <glyph glyph-name="period" unicode="." horiz-adv-x="652" 
d="M213 89q35 37 99 37q65 0 101 -37q34 -35 34 -93q0 -54 -34 -88q-37 -36 -101 -36t-99 36q-33 33 -33 88q0 58 33 93z" />
    <glyph glyph-name="slash" unicode="/" horiz-adv-x="1022" 
d="M31 -266l732 1901h176l-730 -1901h-178z" />
    <glyph glyph-name="zero" unicode="0" horiz-adv-x="1392" 
d="M1246 631q0 -393 -133 -580q-134 -190 -416 -190q-537 0 -552 739v299q0 388 133 573q134 188 417 188q275 0 411 -186q133 -182 140 -553v-290zM1034 937q0 287 -82 419q-81 132 -257 132q-174 0 -255 -131q-80 -129 -83 -403v-358q0 -565 340 -565q170 0 251 130
q82 131 86 409v367z" />
    <glyph glyph-name="one" unicode="1" horiz-adv-x="1392" 
d="M663 -115v1496q-73 -26 -225 -83t-226 -84v190l638 240h26v-1759h-213z" />
    <glyph glyph-name="two" unicode="2" horiz-adv-x="1392" 
d="M153 -115v153l608 676q136 154 187 251q53 100 53 202q0 138 -85 230q-85 91 -227 91q-168 0 -262 -95q-95 -95 -97 -265h-211q3 229 153 383q163 149 417 149q242 0 385 -129q140 -126 140 -337q0 -259 -330 -617l-481 -521h892v-171h-1142z" />
    <glyph glyph-name="three" unicode="3" horiz-adv-x="1392" 
d="M640 863q159 2 253 85q94 84 94 224q0 316 -315 316q-144 0 -236 -85q-87 -85 -89 -218h-211q3 198 150 337q154 138 386 138q247 0 387 -131q139 -130 139 -362q0 -112 -73 -219q-77 -108 -217 -166q152 -49 234 -155q83 -107 83 -257q0 -233 -152 -371
q-153 -138 -400 -138q-239 0 -401 133q-148 134 -152 344h213q2 -138 93 -222q92 -85 247 -85q165 0 253 87q87 86 87 248q0 156 -96 240t-277 86h-162v171h162z" />
    <glyph glyph-name="four" unicode="4" horiz-adv-x="1392" 
d="M1330 465v-171h-244v-409h-213v409h-803v125l787 1216h229v-1170h244zM873 465l-10 875l-556 -875h566z" />
    <glyph glyph-name="five" unicode="5" horiz-adv-x="1392" 
d="M344 1635h892v-194h-713l-55 -498q137 81 302 81q238 0 378 -157t140 -426q0 -263 -146 -426q-152 -154 -406 -154q-231 0 -378 128q-142 125 -164 348h199q44 -306 343 -306q159 0 249 109q91 109 91 298q0 178 -98 287q-99 110 -260 110q-148 0 -234 -65l-57 -47
l-172 44z" />
    <glyph glyph-name="six" unicode="6" horiz-adv-x="1392" 
d="M1019 1459h-35q-266 -6 -420 -156q-157 -154 -183 -446q150 172 388 172q227 0 362 -160q136 -160 136 -415q0 -270 -147 -432q-145 -161 -392 -161q-251 0 -406 191q-156 193 -156 498v86q0 476 211 733q210 255 608 268h34v-178zM516 784q-99 -71 -137 -175v-85
q0 -221 99 -355q101 -135 250 -135t242 114q88 114 88 295q0 183 -90 297q-93 115 -237 115q-118 0 -215 -71z" />
    <glyph glyph-name="seven" unicode="7" horiz-adv-x="1392" 
d="M550 -115h-221l728 1579h-958v171h1179v-117z" />
    <glyph glyph-name="eight" unicode="8" horiz-adv-x="1392" 
d="M1137 948q-69 -103 -194 -164q152 -66 228 -175q79 -113 79 -254q0 -225 -152 -360q-153 -134 -402 -134q-244 0 -404 135q-150 139 -150 359q0 140 80 255q81 115 222 176q-122 60 -191 163q-70 104 -70 232q0 221 140 349q143 130 373 130q229 0 372 -130
q141 -129 141 -349q0 -128 -72 -233zM943 605q-94 95 -249 95t-249 -94q-92 -95 -92 -246q0 -154 91 -241q91 -88 252 -88q160 0 251 88q92 90 92 241t-96 245zM477 1404q-82 -82 -82 -226q0 -138 81 -223q83 -83 220 -83q136 0 219 84q82 84 82 222q0 134 -84 223
q-86 87 -217 87q-136 0 -219 -84z" />
    </font>
</defs>
</svg>
